Subcategories

Eric Clapton - 24 Nights (1991)

Posted By: uff
Eric Clapton - 24 Nights (1991)

Eric Clapton - 24 Nights (1991)
Rock | 2cd | EAC Rip | Flac + Cue + Log | covers
Reprise, 7599-26420-2 | rel: 1991 | 790Mb

Eric Clapton, who had not released a live album since 1980, had several good reasons to release one in the early '90s. For one thing, his spare backup band of keyboardist Greg Phillinganes, bassist Nathan East, and drummer Steve Ferrone was his best live unit ever, and its powerful live versions of Cream classics like "White Room" and "Sunshine of Your Love" deserved to be documented. For another, since 1987 Clapton had been playing an annual series of concerts at the Royal Albert Hall in London, putting together various special shows (blues nights, orchestral nights, etc.). 24 Nights, a double album, was culled from two years of such shows, 1990 and 1991, and it demonstrated the breadth of Clapton's work, from his hot regular band to assemblages of bluesmen like Buddy Guy and Robert Cray to examples of his soundtrack work with an orchestra led by Michael Kamen. The result was an album that came across as a lavishly constructed retrospective and a testament to Clapton's musical stature. But it made little impact upon release (though it quickly went gold), perhaps because events overcame it – three months later, Clapton's elegy for his baby son, "Tears in Heaven," was all over the radio, and a few months after that he was redefining himself on MTV Unplugged – a live show as austere as 24 Nights was grand. Still, it would be hard to find a more thorough demonstration of Clapton's abilities than the one presented here. ~Allmusic

Track listing
cd1:
01. Badge (6:51)
02. Running On Faith (6:50)
03. White Room (6:09)
04. Sunshine Of Your Love (9:07)
05. Watch Yourself (5:39)
06. Have You Ever Loved A Woman (6:52)
07. Worried Life Blues (5:27)
08. Hoodoo Man (5:40)

cd2:
01. Pretending (7:08)
02. Bad Love (6:24)
03. Old Love (13:01)
04. Wonderful Tonight (9:07)
05. Bell Bottom Blues (6:38)
06. Hard Times (3:45)
07. Edge Of Darkness (6:29)


Exact Audio Copy V1.0 beta 3 from 29. August 2011

Отчёт EAC об извлечении, выполненном 8. сентября 2012, 22:33

Eric Clapton / 24 Nights - CD 1

Дисковод: SONY CD-RW CRX230ED Adapter: 0 ID: 1

Режим чтения : Достоверность
Использование точного потока : Да
Отключение кэша аудио : Да
Использование указателей C2 : Нет

Коррекция смещения при чтении : 6
Способность читать области Lead-in и Lead-out : Нет
Заполнение пропущенных сэмплов тишиной : Да
Удаление блоков с тишиной в начале и конце : Нет
При вычислениях CRC использовались нулевые сэмплы : Да
Интерфейс : Встроенный Win32-интерфейс для Win NT/2000

Выходной формат : Внутренние WAV-операции
Формат сэмплов : 44.100 Гц; 16 бит; стерео


TOC извлечённого CD

Трек | Старт | Длительность | Начальный сектор | Конечный сектор
––––––––––––––––––––––––––––––––––-
1 | 0:00.00 | 6:51.47 | 0 | 30871
2 | 6:51.47 | 6:50.15 | 30872 | 61636
3 | 13:41.62 | 6:09.25 | 61637 | 89336
4 | 19:51.12 | 9:10.68 | 89337 | 130654
5 | 29:02.05 | 5:39.02 | 130655 | 156081
6 | 34:41.07 | 6:52.43 | 156082 | 187024
7 | 41:33.50 | 5:27.50 | 187025 | 211599
8 | 47:01.25 | 5:40.37 | 211600 | 237136


Характеристики диапазона извлечения и сообщения об ошибках

Выбранный диапазон

Имя файла E:\MusicCD\Torrent\Eric Clapton\Eric Clapton - 24 Nights\Eric Clapton - 24 Nights - CD 1.wav

Пиковый уровень 100.0 %
Скорость извлечения 7.7 X
Качество диапазона 100.0 %
CRC теста FF1F002B
CRC копии FF1F002B
Копирование… OK

Ошибок не произошло


AccurateRip: сводка

Трек 1 : извлечено точно (доверие 35) [324F2139] (AR v2)
Трек 2 точность не определена (достоверность 102) [41781C29], AccurateRip вернул [131395AB] (AR v2)
Трек 3 : извлечено точно (доверие 32) [DBDE9CD8] (AR v2)
Трек 4 : извлечено точно (доверие 32) [0ADE05D8] (AR v2)
Трек 5 : извлечено точно (доверие 34) [8F466E2B] (AR v2)
Трек 6 : извлечено точно (доверие 31) [EF773CB6] (AR v2)
Трек 7 : извлечено точно (доверие 34) [B4C3847C] (AR v2)
Трек 8 : извлечено точно (доверие 32) [9753D068] (AR v2)

7 трек(и) скопированы точно
1 трек(и) не удалось проверить на точность

Некоторые треки не прошли проверку на точность

Конец отчёта

==== Контрольная сумма отчёта DCC5CF0145359676758516B0C75891BABC3231F2456012DEFF6B0E0AD93C9709 ====
––

Exact Audio Copy V1.0 beta 3 from 29. August 2011

Отчёт EAC об извлечении, выполненном 8. сентября 2012, 22:19

Eric Clapton / 24 Nights - CD 2

Дисковод: SONY CD-RW CRX230ED Adapter: 0 ID: 1

Режим чтения : Достоверность
Использование точного потока : Да
Отключение кэша аудио : Да
Использование указателей C2 : Нет

Коррекция смещения при чтении : 6
Способность читать области Lead-in и Lead-out : Нет
Заполнение пропущенных сэмплов тишиной : Да
Удаление блоков с тишиной в начале и конце : Нет
При вычислениях CRC использовались нулевые сэмплы : Да
Интерфейс : Встроенный Win32-интерфейс для Win NT/2000

Выходной формат : Внутренние WAV-операции
Формат сэмплов : 44.100 Гц; 16 бит; стерео


TOC извлечённого CD

Трек | Старт | Длительность | Начальный сектор | Конечный сектор
––––––––––––––––––––––––––––––––––-
1 | 0:00.00 | 7:08.70 | 0 | 32169
2 | 7:08.70 | 6:24.45 | 32170 | 61014
3 | 13:33.40 | 13:01.20 | 61015 | 119609
4 | 26:34.60 | 9:10.55 | 119610 | 160914
5 | 35:45.40 | 6:38.25 | 160915 | 190789
6 | 42:23.65 | 3:45.22 | 190790 | 207686
7 | 46:09.12 | 6:29.50 | 207687 | 236911


Характеристики диапазона извлечения и сообщения об ошибках

Выбранный диапазон

Имя файла E:\MusicCD\Torrent\Eric Clapton\Eric Clapton - 24 Nights\Eric Clapton - 24 Nights - CD 2.wav

Пиковый уровень 100.0 %
Скорость извлечения 7.7 X
Качество диапазона 100.0 %
CRC теста 3ECB11A3
CRC копии 3ECB11A3
Копирование… OK

Ошибок не произошло


AccurateRip: сводка

Трек 1 : извлечено точно (доверие 35) [3DF79ADD] (AR v2)
Трек 2 : извлечено точно (доверие 34) [2570A449] (AR v2)
Трек 3 : извлечено точно (доверие 34) [6A5F5419] (AR v2)
Трек 4 : извлечено точно (доверие 34) [1A75C5DF] (AR v2)
Трек 5 : извлечено точно (доверие 34) [D75FA9BC] (AR v2)
Трек 6 : извлечено точно (доверие 35) [FAE0490F] (AR v2)
Трек 7 : извлечено точно (доверие 35) [80EEA25B] (AR v2)

Все треки извлечены точно

Конец отчёта

==== Контрольная сумма отчёта AE01F4537E8753207B05E9D95489397CC16E1FDB3ED0A5928C104A424E530E67 ====



[CUETools log; Date: 2017. 01. 07. 11:28:38; Version: 2.1.6]
[CTDB TOCID: f4TKHp.KV..fWJhZtRTGtRPj72k-] found.
Track | CTDB Status
1 | (448/462) Accurately ripped
2 | ( 1/462) Accurately ripped, or (30/462) differs in 7358 samples @02:20:56-02:20:62, or (2/462) differs in 4753 samples @02:20:58-02:20:62, or (6/462) differs in 7248 samples @02:20:56-02:20:62, or (2/462) differs in 7358 samples @02:20:56-02:20:62, or (3/462) differs in 7318 samples @02:20:56-02:20:62, or (3/462) differs in 7316 samples @02:20:56-02:20:62
3 | (421/462) Accurately ripped
4 | (440/462) Accurately ripped
5 | (453/462) Accurately ripped
6 | (446/462) Accurately ripped
7 | (441/462) Accurately ripped
8 | (448/462) Accurately ripped
[AccurateRip ID: 0010d9d9-006fd8bb-650c5908] found.
Track [ CRC | V2 ] Status
01 [a4a2358c|324f2139] (200+200/523) Accurately ripped
02 [b8d1fdb9|41781c29] (000+002/533) Accurately ripped
03 [dfc050ef|dbde9cd8] (200+200/541) Accurately ripped
04 [6af84a9d|0ade05d8] (200+200/535) Accurately ripped
05 [73cf1b17|8f466e2b] (200+200/529) Accurately ripped
06 [0a26978f|ef773cb6] (200+200/523) Accurately ripped
07 [6b234ef3|b4c3847c] (200+200/523) Accurately ripped
08 [23b9f0c3|9753d068] (200+200/518) Accurately ripped
Offsetted by -1404:
01 [36cd1dd7] (030/523) Accurately ripped
02 [1bc9e7bd] (000/533) No match (V2 was not tested)
03 [8843c2ef] (000/541) No match
04 [a5663bca] (000/535) No match
05 [824c4e75] (000/529) No match
06 [2f8ae1f7] (000/523) No match
07 [6b302928] (000/523) No match
08 [64ff6e78] (000/518) No match
Offsetted by -1326:
01 [8b35aedc] (000/523) No match
02 [2b02f892] (000/533) No match
03 [c53850d4] (031/541) Accurately ripped
04 [ed3a9ba5] (030/535) Accurately ripped
05 [bd3812e5] (030/529) Accurately ripped
06 [c2a53183] (031/523) Accurately ripped
07 [b918daf5] (031/523) Accurately ripped
08 [16ef15bf] (030/518) Accurately ripped
Offsetted by -1109:
01 [a32612ac] (004/523) Accurately ripped
02 [67084e4e] (000/533) No match (V2 was not tested)
03 [50d33325] (000/541) No match
04 [f6a063df] (000/535) No match
05 [22347784] (000/529) No match
06 [4adc80a6] (000/523) No match
07 [c6488a45] (000/523) No match
08 [dbc6a625] (000/518) No match
Offsetted by -1031:
01 [129b42ce] (000/523) No match
02 [76805fb6] (000/533) No match
03 [946b980e] (004/541) Accurately ripped
04 [74e2ec8a] (004/535) Accurately ripped
05 [dc04eb20] (004/529) Accurately ripped
06 [6db2fb1c] (003/523) Accurately ripped
07 [504a87b1] (003/523) Accurately ripped
08 [71bf6af7] (002/518) Accurately ripped
Offsetted by -18:
01 [a57d4a44] (000/523) No match (V2 was not tested)
02 [eb737580] (000/533) No match (V2 was not tested)
03 [f4c8f399] (000/541) No match (V2 was not tested)
04 [b7dd4df2] (000/535) No match (V2 was not tested)
05 [0edf6d19] (000/529) No match (V2 was not tested)
06 [4868ef6d] (000/523) No match (V2 was not tested)
07 [55aab217] (000/523) No match (V2 was not tested)
08 [3060cf1b] (000/518) No match (V2 was not tested)
Offsetted by 78:
01 [b17c6d34] (000/523) No match
02 [c885f32e] (000/533) No match
03 [0dc779b4] (009/541) Accurately ripped
04 [1041c2fd] (009/535) Accurately ripped
05 [7b3f2961] (005/529) Accurately ripped
06 [2f40e5bd] (000/523) No match (V2 was not tested)
07 [77f9c582] (000/523) No match (V2 was not tested)
08 [f432b395] (000/518) No match (V2 was not tested)

Track Peak [ CRC32 ] [W/O NULL] [ LOG ]
– 99,9 [FF1F002B] [8EA7B81E] CRC32
01 99,9 [3FF50731] [6B1B1FA4]
02 99,9 [DCDA96B3] [D3A66137]
03 99,9 [57049967] [C4E28F5E]
04 99,9 [4A568AAF] [FB863F0F]
05 99,9 [384EBE72] [3855D7FE]
06 99,9 [A7593C6D] [728577EE]
07 99,9 [12B06519] [AA3BC0EB]
08 99,9 [5844D1A2] [FDC1D27D]
––

[CUETools log; Date: 2017. 01. 07. 11:28:02; Version: 2.1.6]
[CTDB TOCID: Bt18cjA291xAIpvuGhAHLzb.Bto-] found.
Track | CTDB Status
1 | (455/470) Accurately ripped
2 | (466/470) Accurately ripped
3 | (463/470) Accurately ripped
4 | (467/470) Accurately ripped
5 | (466/470) Accurately ripped
6 | (465/470) Accurately ripped
7 | (459/470) Accurately ripped
[AccurateRip ID: 000f65cb-005bec36-5b0c5607] found.
Track [ CRC | V2 ] Status
01 [66fe5f81|3df79add] (200+200/514) Accurately ripped
02 [696b7232|2570a449] (200+200/514) Accurately ripped
03 [c979f610|6a5f5419] (200+200/513) Accurately ripped
04 [f48d55cd|1a75c5df] (200+200/514) Accurately ripped
05 [a288fb9d|d75fa9bc] (200+200/514) Accurately ripped
06 [271cbf9e|fae0490f] (200+200/514) Accurately ripped
07 [1caa1448|80eea25b] (200+200/513) Accurately ripped
Offsetted by -664:
01 [f7feaf44] (030/514) Accurately ripped
02 [1dde68fd] (031/514) Accurately ripped
03 [eaf712f7] (031/513) Accurately ripped
04 [4b0a0524] (031/514) Accurately ripped
05 [d8e057c0] (031/514) Accurately ripped
06 [69f5470c] (031/514) Accurately ripped
07 [c4d80880] (030/513) Accurately ripped
Offsetted by -329:
01 [cac6db49] (006/514) Accurately ripped
02 [95702084] (006/514) Accurately ripped
03 [9e596ad9] (006/513) Accurately ripped
04 [51c51cd4] (006/514) Accurately ripped
05 [d2c33e9d] (006/514) Accurately ripped
06 [d1303bbb] (006/514) Accurately ripped
07 [96502e2e] (006/513) Accurately ripped
Offsetted by -694:
01 [77bcb417] (000/514) No match (V2 was not tested)
02 [60992387] (000/514) No match (V2 was not tested)
03 [6c0fbbcf] (000/513) No match (V2 was not tested)
04 [e37be713] (000/514) No match (V2 was not tested)
05 [0c55dd84] (000/514) No match (V2 was not tested)
06 [5b0e8b21] (000/514) No match (V2 was not tested)
07 [4ad9800b] (000/513) No match (V2 was not tested)
Offsetted by -18:
01 [f6f61c04] (000/514) No match (V2 was not tested)
02 [049573fa] (000/514) No match (V2 was not tested)
03 [cba0b1ae] (000/513) No match (V2 was not tested)
04 [6c0d07e0] (000/514) No match (V2 was not tested)
05 [3c02b67e] (000/514) No match (V2 was not tested)
06 [13299ae4] (000/514) No match (V2 was not tested)
07 [d96f163e] (000/513) No match (V2 was not tested)

Track Peak [ CRC32 ] [W/O NULL] [ LOG ]
– 99,9 [3ECB11A3] [2EB7EFE8] CRC32
01 99,9 [1B1787E4] [506FC471]
02 99,9 [5B492294] [C34A9231]
03 99,9 [6F015848] [DB5F2D5C]
04 99,9 [C81B3247] [04F91E7E]
05 99,9 [44FF5861] [84469690]
06 99,9 [26A6DF84] [2EF34414]
07 99,9 [6AE507DD] [933A17A0]


Thx to squirr