Subcategories

Eric Johnson & Alien Love Child - Live And Beyond (2000)

Posted By: uff
Eric Johnson & Alien Love Child - Live And Beyond (2000)

Eric Johnson & Alien Love Child - Live And Beyond (2000)
Rock | 1cd | EAC Rip | Flac + Cue + Log | covers
Favored Nations | rel: 2000 | 350Mb

On Live and beyond, Eric Johnson serves up a helping of live Texas blues rock with his band Alien Love Child, a trio featuring Chris Maresh on bass and bill Maddox on drums, with Johnson and Maresh sharing occasional vocal duties with guest vocalist Malford Milligan. Johnson's infamous meticulousness over guitar equipment and his recordings has delayed several of his studio records in the past decade, but Live and beyond presents Johnson in a less inhibited live setting.
Johnson shines when the band jams, even over some rather stock blues riffing like "Enzo Shuffle" or the solo section of "The Boogie King," after the dull intro, but the music lags during the vocal sections. Many of the blues shuffle riffs sound quite similar, and "Once a Part of Me" and "Don't Cha Know" with guest Milligan feel even more hackneyed. None of the live cuts match the mournful wail of the single studio track "World of Trouble."
Johnson wields his trademark silky smooth lead sound with mixed results, such as the wonderfully snappy, gloomy solo on "Once a Part of Me," and the ponderously extended solo in "Last House on the Block." His sparkly clean guitar passages add a welcome contrast to the repetitive gritty blues riffing, particularly the almost Allan Holdsworth sounding ethereal swells opening "Elevator Sky Movie." The pedantic rhythm section supports Johnson adequately but fails to add an additional spark to the music. Perhaps the studio version of the band, with Steve Barber on Hammond B3 organ, better suits Johnson's writing and playing. ~Allaboutjazz

Track listing
01. Zenland (5:53)
02. Last House on the Block (11:13)
03. Rain (4:08)
04. Enzo Shuffle (3:01)
05. Once a Part of Me (7:16)
06. Don't Cha Know (3:53)
07. The Boogie King (tribute to John Lee Hooker) (4:29)
08. Elevator Sky Movie (2:34)
09. Shape I'm In (5:35)
10. World of Trouble (3:40)

Personnel
- Bass – Chris Maresh
- Drums – Bill Maddox
- Guitar, Vocals, Producer – Eric Johnson
- Vocals – Malford Milligan


Exact Audio Copy V0.99 prebeta 4 from 23. January 2008

Отчёт EAC об извлечении, выполненном 2. апреля 2010, 21:34

Eric Johnson / Alien Love Child - Live And Beyond

Дисковод: ASUS DRW-1814BLT Adapter: 2 ID: 0

Режим чтения : Достоверность
Использование точного потока : Да
Отключение кэша аудио : Да
Использование указателей C2 : Нет

Коррекция смещения при чтении : 6
Способность читать области Lead-in и Lead-out : Нет
Заполнение пропущенных сэмплов тишиной : Да
Удаление блоков с тишиной в начале и конце : Нет
При вычислениях CRC использовались нулевые сэмплы : Да
Интерфейс : Встроенный Win32-интерфейс для Win NT/2000

Выходной формат : Пользовательский кодировщик
Выбранный битрейт : 768 kBit/s
Качество : Высокий
Добавление ID3-тэга : Нет
Утилита сжатия : D:\Program Files\Exact Audio Copy\Flac\Flac.exe
Дополнительные параметры : -8 –delete-input-file -o "D:\CDImage.flac" -V %s


TOC извлечённого CD

Трек | Старт | Длительность | Начальный сектор | Конечный сектор
––––––––––––––––––––––––––––––––––-
1 | 0:00.00 | 5:53.12 | 0 | 26486
2 | 5:53.12 | 11:13.12 | 26487 | 76973
3 | 17:06.24 | 4:08.14 | 76974 | 95587
4 | 21:14.38 | 3:01.10 | 95588 | 109172
5 | 24:15.48 | 7:16.01 | 109173 | 141873
6 | 31:31.49 | 3:53.20 | 141874 | 159368
7 | 35:24.69 | 4:29.20 | 159369 | 179563
8 | 39:54.14 | 2:34.28 | 179564 | 191141
9 | 42:28.42 | 5:35.48 | 191142 | 216314
10 | 48:04.15 | 3:40.20 | 216315 | 232834


Характеристики диапазона извлечения и сообщения об ошибках

Выбранный диапазон

Имя файла D:\Eric Johnson - Alien Love Child Live And Beyond.wav

Пиковый уровень 98.8 %
Качество диапазона 99.9 %
CRC теста 8A4713C6
CRC копии 8A4713C6
Копирование… OK

Ошибок не произошло


AccurateRip: сводка

Трек 1 точность не определена (достоверность 33) [319F3CCA], AccurateRip вернул [0947D9D9]
Трек 2 точность не определена (достоверность 31) [647E012B], AccurateRip вернул [867BBD6B]
Трек 3 точность не определена (достоверность 33) [2859343A], AccurateRip вернул [E292276A]
Трек 4 точность не определена (достоверность 33) [97E4695E], AccurateRip вернул [F2F7A7DF]
Трек 5 точность не определена (достоверность 33) [055D7A9C], AccurateRip вернул [41E5C090]
Трек 6 точность не определена (достоверность 33) [89E5AC99], AccurateRip вернул [FCC53302]
Трек 7 точность не определена (достоверность 33) [6AC6EC73], AccurateRip вернул [48A745A1]
Трек 8 точность не определена (достоверность 33) [C451C9C7], AccurateRip вернул [294534BD]
Трек 9 точность не определена (достоверность 33) [B56E801D], AccurateRip вернул [8658BFA8]
Трек 10 точность не определена (достоверность 31) [E5CB21CE], AccurateRip вернул [5DBC00C4]

Ни один трек не прошёл проверки на точность
В вашей базе может быть иной вариант штамповки диска

Конец отчёта



[CUETools log; Date: 2016. 12. 31. 11:03:48; Version: 2.1.6]
[CTDB TOCID: _LHjGMHjSy.BQiy_thyfH820elg-] found.
Track | CTDB Status
1 | (53/53) Accurately ripped
2 | (53/53) Accurately ripped
3 | (53/53) Accurately ripped
4 | (53/53) Accurately ripped
5 | (53/53) Accurately ripped
6 | (52/53) Accurately ripped
7 | (52/53) Accurately ripped
8 | (53/53) Accurately ripped
9 | (53/53) Accurately ripped
10 | (53/53) Accurately ripped
[AccurateRip ID: 0015cf49-00a8c362-930c200a] found.
Track [ CRC | V2 ] Status
01 [319f3cca|2b072443] (000+000/110) No match
02 [647e012b|3c4cebe9] (000+000/107) No match
03 [2859343a|319a7f16] (000+000/112) No match
04 [97e4695e|e69edce5] (000+000/112) No match
05 [055d7a9c|ec600bcc] (000+000/111) No match
06 [89e5ac99|c78edff4] (000+000/112) No match
07 [6ac6ec73|263bf94c] (000+000/111) No match
08 [c451c9c7|f4ba8559] (000+000/111) No match
09 [b56e801d|b248dd5e] (000+000/111) No match
10 [e5cb21ce|092f1697] (000+000/110) No match
Offsetted by 647:
01 [6be84604] (004/110) Accurately ripped
02 [567cd802] (004/107) Accurately ripped
03 [7be64e98] (004/112) Accurately ripped
04 [5fbd276a] (004/112) Accurately ripped
05 [47fdf84d] (004/111) Accurately ripped
06 [53448370] (004/112) Accurately ripped
07 [9641dc77] (004/111) Accurately ripped
08 [be332540] (004/111) Accurately ripped
09 [5c51149f] (004/111) Accurately ripped
10 [825b4d8e] (004/110) Accurately ripped
Offsetted by 676:
01 [0947d9d9] (050/110) Accurately ripped
02 [867bbd6b] (046/107) Accurately ripped
03 [e292276a] (050/112) Accurately ripped
04 [f2f7a7df] (050/112) Accurately ripped
05 [41e5c090] (050/111) Accurately ripped
06 [fcc53302] (050/112) Accurately ripped
07 [48a745a1] (050/111) Accurately ripped
08 [294534bd] (050/111) Accurately ripped
09 [8658bfa8] (050/111) Accurately ripped
10 [5dbc00c4] (048/110) Accurately ripped
Offsetted by 12:
01 [04f3c052] (000/110) No match (V2 was not tested)
02 [4ff8ba53] (000/107) No match (V2 was not tested)
03 [85b6dbe5] (000/112) No match (V2 was not tested)
04 [dcd45d48] (000/112) No match (V2 was not tested)
05 [dd618c3e] (000/111) No match (V2 was not tested)
06 [416b6396] (000/112) No match (V2 was not tested)
07 [68e17cae] (000/111) No match (V2 was not tested)
08 [5e73aeb4] (000/111) No match (V2 was not tested)
09 [0161eb53] (000/111) No match (V2 was not tested)
10 [d9d9737b] (000/110) No match (V2 was not tested)

Track Peak [ CRC32 ] [W/O NULL]
– 98,8 [8A4713C6] [D8EA2E18]
01 98,8 [6E36F6EA] [22C47FD0]
02 98,8 [3979AB30] [C0CCC5CF]
03 98,8 [F15B7A08] [37C19F71]
04 98,8 [FBBD8F79] [5A478928]
05 98,8 [D2184E9C] [77FF3767]
06 98,8 [EA04964D] [58FD0C3F]
07 98,8 [974B30CA] [0DE50AE1]
08 69,4 [6C0A5BA9] [37A46AA8]
09 98,8 [10C50353] [4758AFA1]
10 98,8 [EA9842D1] [E15A4847]


Thx to orbster