Eric Johnson - Souvenir (2002) REPOST

Posted By: uff
Eric Johnson - Souvenir (2002) REPOST

Eric Johnson - Souvenir (2002)
Rock | 1cd | EAC Rip | Flac + Cue + Log | covers
Vortexan, VM7771-2 | rel: 2002 | 305Mb

Austin, TX-based guitar hero Eric Johnson is recognized as a perfectionist. He takes great care honing his sound. Along with that, the artist doesn't rush his album releases, as this outing signifies previously undocumented material spanning 25 years. Johnson's intent here is to provide his fans with an album available solely through his website. The artist states in the liners: "The thought came up of having occasional Internet releases. They would be issued as an interim series between regular studio releases." To that end, these tracks are surprisingly good, especially when considering that the bulk of this archival material consists of demos, incomplete ideas, and so forth. The majority of this affair highlights the guitarist's understated vocals atop his soaring lead lines and much more. On the piece titled "Space of Clouds," Johnson minces softly stated vocals with a Hendrix-like wailing guitar motif and his nimbly articulated fretwork. Johnson provides a narrative on a per track basis, and in this instance, added a synth overlay specifically for this album. Other highlights include the band's rocking version of the Beatles' "Paperback Writer," complete with Johnson's phased electric guitar choruses. The guitarist's longtime bandmates, bassist Chris Maresh and drummer Tommy Taylor, appear on most of these works, consisting of warm ballads, boogie rockers, and a memorably melodic pop/rock work titled "Virginia." Overall, this production transcends any preconceived expectations. Recommended. ~Allmusic

Track listing
01. Get To Go (4:47)
02. Space Of Clouds (2:49)
03. Paperback Writer (4:06)
04. Forever Yours (4:12)
05. Hard Times (3:00)
06. Climbing From Inside (3:31)
07. I'm Finding You (4:25)
08. Paladin (3:08)
09. Fanfare One (1:58)
10. Virginia (4:12)
11. A Memory I Have (2:47)
12. Dusty (1:23)


Exact Audio Copy V1.0 beta 3 from 29. August 2011

EAC extraction logfile from 16. July 2014, 6:10

Eric Johnson / Souvenir

Used drive : HL-DT-STDVDRAM GH24NS50 Adapter: 2 ID: 1

Read mode : Secure
Utilize accurate stream : Yes
Defeat audio cache : Yes
Make use of C2 pointers : No

Read offset correction : 667
Overread into Lead-In and Lead-Out : No
Fill up missing offset samples with silence : Yes
Delete leading and trailing silent blocks : No
Null samples used in CRC calculations : Yes
Used interface : Native Win32 interface for Win NT & 2000
Gap handling : Appended to previous track

Used output format : User Defined Encoder
Selected bitrate : 1024 kBit/s
Quality : High
Add ID3 tag : No
Command line compressor : D:\Program Files\FLAC\flac.exe
Additional command line options : -8 -V -T "ARTIST=%artist%" -T "TITLE=%title%" -T "ALBUM=%albumtitle%" -T "DATE=%year%" -T "TRACKNUMBER=%tracknr%" -T "TOTALTRACKS=%numtracks%" -T "GENRE=%genre%" -T "ALBUMARTIST=%albumartist%" -T "ALBUM ARTIST=%albumartist%" -T "COMMENT=EAC Secure Mode, Test & Copy, AccurateRip, FLAC -8" %source%


TOC of the extracted CD

Track | Start | Length | Start sector | End sector
––––––––––––––––––––––––––––-
1 | 0:00.00 | 4:47.09 | 0 | 21533
2 | 4:47.09 | 2:49.38 | 21534 | 34246
3 | 7:36.47 | 4:06.06 | 34247 | 52702
4 | 11:42.53 | 4:12.69 | 52703 | 71671
5 | 15:55.47 | 3:00.69 | 71672 | 85240
6 | 18:56.41 | 3:31.43 | 85241 | 101108
7 | 22:28.09 | 4:25.22 | 101109 | 121005
8 | 26:53.31 | 3:08.73 | 121006 | 135178
9 | 30:02.29 | 1:58.36 | 135179 | 144064
10 | 32:00.65 | 4:12.00 | 144065 | 162964
11 | 36:12.65 | 2:47.65 | 162965 | 175554
12 | 39:00.55 | 1:23.34 | 175555 | 181813


Track 1

Filename D:\Eric Johnson - Souvenir (2002) [FLAC]\01 - Get To Go.wav

Pre-gap length 0:00:02.00

Peak level 98.8 %
Extraction speed 1.2 X
Track quality 100.0 %
Test CRC 28F278FA
Copy CRC 28F278FA
Accurately ripped (confidence 6) [54B8B64F] (AR v2)
Copy OK

Track 2

Filename D:\Eric Johnson - Souvenir (2002) [FLAC]\02 - Space Of Clouds.wav

Peak level 98.6 %
Extraction speed 1.2 X
Track quality 100.0 %
Test CRC F7226EE4
Copy CRC F7226EE4
Accurately ripped (confidence 6) [59E8636C] (AR v2)
Copy OK

Track 3

Filename D:\Eric Johnson - Souvenir (2002) [FLAC]\03 - Paperback Writer.wav

Peak level 96.5 %
Extraction speed 1.4 X
Track quality 100.0 %
Test CRC AC572A94
Copy CRC AC572A94
Accurately ripped (confidence 6) [AFD5D227] (AR v2)
Copy OK

Track 4

Filename D:\Eric Johnson - Souvenir (2002) [FLAC]\04 - Forever Yours.wav

Peak level 98.8 %
Extraction speed 1.5 X
Track quality 100.0 %
Test CRC A511553A
Copy CRC A511553A
Accurately ripped (confidence 6) [E0E0EF70] (AR v2)
Copy OK

Track 5

Filename D:\Eric Johnson - Souvenir (2002) [FLAC]\05 - Hard Times.wav

Peak level 94.1 %
Extraction speed 1.3 X
Track quality 99.9 %
Test CRC 7C653D36
Copy CRC 7C653D36
Accurately ripped (confidence 6) [7B40AFA9] (AR v2)
Copy OK

Track 6

Filename D:\Eric Johnson - Souvenir (2002) [FLAC]\06 - Climbing From Inside.wav

Peak level 94.0 %
Extraction speed 1.6 X
Track quality 100.0 %
Test CRC 0C6F96C3
Copy CRC 0C6F96C3
Accurately ripped (confidence 6) [F2DFF282] (AR v2)
Copy OK

Track 7

Filename D:\Eric Johnson - Souvenir (2002) [FLAC]\07 - I'm Finding You.wav

Peak level 99.6 %
Extraction speed 1.6 X
Track quality 99.9 %
Test CRC 3EC66A1C
Copy CRC 3EC66A1C
Accurately ripped (confidence 6) [CE41C965] (AR v2)
Copy OK

Track 8

Filename D:\Eric Johnson - Souvenir (2002) [FLAC]\08 - Paladin.wav

Peak level 94.2 %
Extraction speed 1.8 X
Track quality 100.0 %
Test CRC 7B6D9A2D
Copy CRC 7B6D9A2D
Accurately ripped (confidence 6) [B3BE1667] (AR v2)
Copy OK

Track 9

Filename D:\Eric Johnson - Souvenir (2002) [FLAC]\09 - Fanfare One.wav

Peak level 97.5 %
Extraction speed 1.6 X
Track quality 100.0 %
Test CRC 7195DA6E
Copy CRC 7195DA6E
Accurately ripped (confidence 6) [0CB7053C] (AR v2)
Copy OK

Track 10

Filename D:\Eric Johnson - Souvenir (2002) [FLAC]\10 - Virginia.wav

Peak level 99.8 %
Extraction speed 1.7 X
Track quality 99.9 %
Test CRC C853997B
Copy CRC C853997B
Accurately ripped (confidence 6) [BB46DECE] (AR v2)
Copy OK

Track 11

Filename D:\Eric Johnson - Souvenir (2002) [FLAC]\11 - A Memory I Have.wav

Peak level 94.9 %
Extraction speed 1.8 X
Track quality 100.0 %
Test CRC 632648F5
Copy CRC 632648F5
Accurately ripped (confidence 6) [540DFA84] (AR v2)
Copy OK

Track 12

Filename D:\Eric Johnson - Souvenir (2002) [FLAC]\12 - Dusty.wav

Peak level 99.6 %
Extraction speed 1.7 X
Track quality 100.0 %
Test CRC 33DB1187
Copy CRC 33DB1187
Accurately ripped (confidence 6) [C1BB595D] (AR v2)
Copy OK


All tracks accurately ripped

No errors occurred

End of status report

–– CUETools DB Plugin V2.1.3

[CTDB TOCID: 2o1flC79W8iOGxGOLcq9v3Dixd0-] found, Submit result: 2o1flC79W8iOGxGOLcq9v3Dixd0- has been confirmed
[3ff59534] (6/6) Accurately ripped


==== Log checksum B2118514970C6BAD3C379D886099DC61CA5D3E6CD30DD503BD5F75BB6283A7F1 ====



[CUETools log; Date: 2016. 12. 25. 9:08:54; Version: 2.1.6]
[CTDB TOCID: 2o1flC79W8iOGxGOLcq9v3Dixd0-] found.
Track | CTDB Status
1 | (16/16) Accurately ripped
2 | (16/16) Accurately ripped
3 | (16/16) Accurately ripped
4 | (16/16) Accurately ripped
5 | (16/16) Accurately ripped
6 | (16/16) Accurately ripped
7 | (16/16) Accurately ripped
8 | (16/16) Accurately ripped
9 | (16/16) Accurately ripped
10 | (16/16) Accurately ripped
11 | (16/16) Accurately ripped
12 | (16/16) Accurately ripped
[AccurateRip ID: 0013a3b2-00b46515-9d09780c] found.
Track [ CRC | V2 ] Status
01 [e799816e|54b8b64f] (12+09/32) Accurately ripped
02 [0a106d1e|59e8636c] (13+09/33) Accurately ripped
03 [cc6058ff|afd5d227] (13+09/33) Accurately ripped
04 [7f63a822|e0e0ef70] (13+09/33) Accurately ripped
05 [99c225cf|7b40afa9] (13+09/33) Accurately ripped
06 [671e684e|f2dff282] (13+09/33) Accurately ripped
07 [c9209ece|ce41c965] (12+09/32) Accurately ripped
08 [6f3a76e0|b3be1667] (12+09/32) Accurately ripped
09 [8dd94351|0cb7053c] (12+09/32) Accurately ripped
10 [470aa6c1|bb46dece] (13+09/33) Accurately ripped
11 [545ea724|540dfa84] (13+09/33) Accurately ripped
12 [6f399f8b|c1bb595d] (13+09/33) Accurately ripped
Offsetted by -1328:
01 [2ba95871] (03/32) Accurately ripped
02 [dfdb1a4a] (03/33) Accurately ripped
03 [c6449f26] (03/33) Accurately ripped
04 [f97cd5b7] (03/33) Accurately ripped
05 [e936a9fb] (03/33) Accurately ripped
06 [d298753c] (03/33) Accurately ripped
07 [0d5a7a7b] (03/32) Accurately ripped
08 [e2dd54e1] (03/32) Accurately ripped
09 [3261f2b9] (03/32) Accurately ripped
10 [f4b01559] (03/33) Accurately ripped
11 [eb5683d7] (03/33) Accurately ripped
12 [02940d43] (03/33) Accurately ripped
Offsetted by -664:
01 [4ed72784] (00/32) No match (V2 was not tested)
02 [ebb7a2a8] (00/33) No match (V2 was not tested)
03 [303308ff] (00/33) No match (V2 was not tested)
04 [59417f8c] (00/33) No match (V2 was not tested)
05 [85811a41] (00/33) No match (V2 was not tested)
06 [8cb82aad] (00/33) No match (V2 was not tested)
07 [938950e8] (00/32) No match (V2 was not tested)
08 [26e8714e] (00/32) No match (V2 was not tested)
09 [ca9fc3d5] (00/32) No match (V2 was not tested)
10 [908570ac] (00/33) No match (V2 was not tested)
11 [88de7814] (00/33) No match (V2 was not tested)
12 [ab365559] (00/33) No match (V2 was not tested)
Offsetted by -658:
01 [772e8020] (00/32) No match (V2 was not tested)
02 [981bc507] (00/33) No match (V2 was not tested)
03 [9488a154] (00/33) No match (V2 was not tested)
04 [02716a58] (00/33) No match (V2 was not tested)
05 [f2e1246d] (00/33) No match (V2 was not tested)
06 [4a919333] (00/33) No match (V2 was not tested)
07 [b5bad32a] (00/32) No match (V2 was not tested)
08 [b0e849be] (00/32) No match (V2 was not tested)
09 [90c13d3b] (00/32) No match (V2 was not tested)
10 [eae8962a] (00/33) No match (V2 was not tested)
11 [4c0f9c22] (00/33) No match (V2 was not tested)
12 [41cd67ff] (00/33) No match (V2 was not tested)

Track Peak [ CRC32 ] [W/O NULL] [ LOG ]
– 99,8 [365F0C6E] [C93AD957]
01 98,8 [28F278FA] [9A8B8DC4] CRC32
02 98,6 [F7226EE4] [DFDD11F9] CRC32
03 96,5 [AC572A94] [C1F756EE] CRC32
04 98,8 [A511553A] [AB40F695] CRC32
05 94,0 [7C653D36] [E8C4F338] CRC32
06 94,0 [0C6F96C3] [A2BEEEFC] CRC32
07 99,6 [3EC66A1C] [6944D240] CRC32
08 94,2 [7B6D9A2D] [75C65424] CRC32
09 97,5 [7195DA6E] [544094A3] CRC32
10 99,8 [C853997B] [41E12FDC] CRC32
11 94,9 [632648F5] [9836B228] CRC32
12 99,6 [33DB1187] [C48E3719] CRC32


original uploader unknown
Bigfile
Filefactory

password: asd