Subcategories

Eric Clapton - Live In San Diego With Special Guest JJ Cale (2016) [2CDs] {Reprise}

Posted By: tiburon
Eric Clapton - Live In San Diego With Special Guest JJ Cale (2016) [2CDs] {Reprise}

Eric Clapton - Live In San Diego With Special Guest JJ Cale (2016) [2CDs] {Reprise}
EAC 1.1 | FLAC tracks level 8 | Cue+Log+M3U | Full Scans 600dpi | 867MB + 5% Recovery
MP3 CBR 320 Kbps | 246MB + 5% Recovery
Genre: Rock, Blues

Special guests on the Live in San Diego release include guitarists J. J. Cale, Robert Cray, Doyle Bramhall II and Derek Trucks. The live album marks Clapton's second collaboration with Cale after The Road to Escondido was released on 7 November 2006. Also, the album features the first new live music from Clapton and Cray following Clapton's 1991 live double album 24 Nights. The album, which is available on compact disc, as a digital download and on gramophone record was recorded on 15 March 2007 at the Ipayone Center in San Diego, California during the "Doyle & Derek World Tour" and features a total of 16 tracks.
Track List

CD1
1. Tell the Truth (Eric Clapton · Bobby Whitlock) 6:23
2. Key to the Highway (Charlie) 4:12
3. Got to Get Better in a Little While (Eric Clapton) 9:35
4. Little Wing (Jimi Hendrix) 6:58
5. Anyday (Eric Clapton · Bobby Whitlock) 6:05
6. Anyway the Wind Blows (with J. J. Cale) (J. J. Cale) 5:32
7. After Midnight" (with J. J. Cale) (J. J. Cale) 5:44
8. Who Am I Telling You?" (with J. J. Cale) (J. J. Cale) 4:52
9. Don't Cry Sister" (with J. J. Cale) (J. J. Cale) 3:33

CD2
1. Cocaine (with J. J. Cale) (J. J. Cale) 5:31
2. Motherless Children (Blind Willie Johnson) 5:23
3. Little Queen of Spades (Robert Johnson) 17:21
4. Further On up the Road (Don Robey · Joe Medwick Veasey) 6:49
5. Wonderful Tonight (Eric Clapton) 4:31
6. Layla (Eric Clapton · Jim Gordon) 8:25
7. Crossroads (with Robert Cray) (Robert Johnson) 6:55

musicians
Eric Clapton – guitar, lead vocals
J. J. Cale – guitar, vocals (tracks 6, 7, 8, 9, 10)
Robert Cray – guitar, vocals (track 16)
Doyle Bramhall II – guitar, backing vocals
Derek Trucks – slide guitar
Willie Weeks – bass guitar
Steve Jordan – drums
Chris Stainton – keyboard
Tim Carmon – keyboard
Michelle John – backing vocals
Sharon White – backing vocals

Recorded on March 15, 2007, San Diego, CA

Produced by Simon Climie


Exact Audio Copy V1.1 from 23. June 2015

EAC extraction logfile from 3. October 2016, 21:44

Eric Clapton / Live in San Diego With Special Guest JJ Cale (Disc 1)

Used drive : PLEXTOR DVDR PX-L890SA Adapter: 1 ID: 1

Read mode : Secure
Utilize accurate stream : Yes
Defeat audio cache : Yes
Make use of C2 pointers : No

Read offset correction : 6
Overread into Lead-In and Lead-Out : No
Fill up missing offset samples with silence : Yes
Delete leading and trailing silent blocks : No
Null samples used in CRC calculations : Yes
Used interface : Native Win32 interface for Win NT & 2000
Gap handling : Appended to previous track

Used output format : User Defined Encoder
Selected bitrate : 128 kBit/s
Quality : High
Add ID3 tag : No
Command line compressor : C:\Program Files (x86)\Exact Audio Copy\FLAC\FLAC.EXE
Additional command line options : -8 -V -T "ARTIST=%artist%" -T "TITLE=%title%" -T "ALBUM=%albumtitle%" -T "DATE=%year%" -T "TRACKNUMBER=%tracknr%" -T "TOTALTRACKS=%numtracks%" -T "GENRE=%genre%" -T "ALBUMARTIST=%albumartist%" -T "ALBUM ARTIST=%albumartist%" -T "COMMENT=EAC Secure Mode, Test & Copy, AccurateRip, FLAC -8" %source%


TOC of the extracted CD

Track | Start | Length | Start sector | End sector
––––––––––––––––––––––––––––-
1 | 0:00.00 | 6:23.19 | 0 | 28743
2 | 6:23.19 | 4:12.07 | 28744 | 47650
3 | 10:35.26 | 9:34.41 | 47651 | 90741
4 | 20:09.67 | 6:58.11 | 90742 | 122102
5 | 27:08.03 | 6:05.28 | 122103 | 149505
6 | 33:13.31 | 5:31.40 | 149506 | 174370
7 | 38:44.71 | 5:43.38 | 174371 | 200133
8 | 44:28.34 | 4:52.29 | 200134 | 222062
9 | 49:20.63 | 3:32.54 | 222063 | 238016


Track 1

Filename D:\Flac Rips\01 - Tell The Truth.wav

Pre-gap length 0:00:02.00

Peak level 100.0 %
Extraction speed 1.9 X
Track quality 100.0 %
Test CRC 78977444
Copy CRC 78977444
Track not present in AccurateRip database
Copy OK

Track 2

Filename D:\Flac Rips\02 - Key To The Highway.wav

Peak level 100.0 %
Extraction speed 2.1 X
Track quality 100.0 %
Test CRC 9F2536C1
Copy CRC 9F2536C1
Track not present in AccurateRip database
Copy OK

Track 3

Filename D:\Flac Rips\03 - Got To Get Better In A Little While.wav

Peak level 100.0 %
Extraction speed 2.6 X
Track quality 100.0 %
Test CRC 9A30C291
Copy CRC 9A30C291
Track not present in AccurateRip database
Copy OK

Track 4

Filename D:\Flac Rips\04 - Little Wing.wav

Peak level 100.0 %
Extraction speed 2.8 X
Track quality 100.0 %
Test CRC 722E585D
Copy CRC 722E585D
Track not present in AccurateRip database
Copy OK

Track 5

Filename D:\Flac Rips\05 - Anyday.wav

Peak level 100.0 %
Extraction speed 3.0 X
Track quality 100.0 %
Test CRC 6E71656F
Copy CRC 6E71656F
Track not present in AccurateRip database
Copy OK

Track 6

Filename D:\Flac Rips\06 - Anyway The Wind Blows.wav

Peak level 100.0 %
Extraction speed 3.2 X
Track quality 100.0 %
Test CRC 2B38FFD8
Copy CRC 2B38FFD8
Track not present in AccurateRip database
Copy OK

Track 7

Filename D:\Flac Rips\07 - After Midnight.wav

Peak level 100.0 %
Extraction speed 3.4 X
Track quality 100.0 %
Test CRC C7F10192
Copy CRC C7F10192
Track not present in AccurateRip database
Copy OK

Track 8

Filename D:\Flac Rips\08 - Who Am I Telling You.wav

Peak level 100.0 %
Extraction speed 3.4 X
Track quality 100.0 %
Test CRC F8218FFB
Copy CRC F8218FFB
Track not present in AccurateRip database
Copy OK

Track 9

Filename D:\Flac Rips\09 - Don't Cry Sister.wav

Peak level 100.0 %
Extraction speed 3.4 X
Track quality 100.0 %
Test CRC 1D1813A3
Copy CRC 1D1813A3
Track not present in AccurateRip database
Copy OK


None of the tracks are present in the AccurateRip database

No errors occurred

End of status report

–– CUETools DB Plugin V2.1.6

[CTDB TOCID: .gVOH443fU8sdFjNWdYb82K6XUE-] found
Submit result: .gVOH443fU8sdFjNWdYb82K6XUE- has been confirmed
Track | CTDB Status
1 | (20/20) Accurately ripped
2 | (20/20) Accurately ripped
3 | (20/20) Accurately ripped
4 | (19/20) Accurately ripped
5 | (20/20) Accurately ripped
6 | (20/20) Accurately ripped
7 | (20/20) Accurately ripped
8 | (20/20) Accurately ripped
9 | (20/20) Accurately ripped


==== Log checksum 975F34C2872F595B2A6E9499BE0F4721991A3019E9E3D70C0D66B21A62CA923D ====

–––––––-

Exact Audio Copy V1.1 from 23. June 2015

EAC extraction logfile from 3. October 2016, 22:26

Eric Clapton / Live in San Diego With Special Guest JJ Cale (Disc 2)

Used drive : PLEXTOR DVDR PX-L890SA Adapter: 1 ID: 1

Read mode : Secure
Utilize accurate stream : Yes
Defeat audio cache : Yes
Make use of C2 pointers : No

Read offset correction : 6
Overread into Lead-In and Lead-Out : No
Fill up missing offset samples with silence : Yes
Delete leading and trailing silent blocks : No
Null samples used in CRC calculations : Yes
Used interface : Native Win32 interface for Win NT & 2000
Gap handling : Appended to previous track

Used output format : User Defined Encoder
Selected bitrate : 128 kBit/s
Quality : High
Add ID3 tag : No
Command line compressor : C:\Program Files (x86)\Exact Audio Copy\FLAC\FLAC.EXE
Additional command line options : -8 -V -T "ARTIST=%artist%" -T "TITLE=%title%" -T "ALBUM=%albumtitle%" -T "DATE=%year%" -T "TRACKNUMBER=%tracknr%" -T "TOTALTRACKS=%numtracks%" -T "GENRE=%genre%" -T "ALBUMARTIST=%albumartist%" -T "ALBUM ARTIST=%albumartist%" -T "COMMENT=EAC Secure Mode, Test & Copy, AccurateRip, FLAC -8" %source%


TOC of the extracted CD

Track | Start | Length | Start sector | End sector
––––––––––––––––––––––––––––-
1 | 0:00.00 | 5:31.19 | 0 | 24843
2 | 5:31.19 | 5:23.21 | 24844 | 49089
3 | 10:54.40 | 17:21.23 | 49090 | 127187
4 | 28:15.63 | 6:49.07 | 127188 | 157869
5 | 35:04.70 | 4:30.42 | 157870 | 178161
6 | 39:35.37 | 8:24.53 | 178162 | 216014
7 | 48:00.15 | 6:55.05 | 216015 | 247144


Track 1

Filename D:\Flac Rips\01 - Cocaine.wav

Pre-gap length 0:00:02.00

Peak level 100.0 %
Extraction speed 3.5 X
Track quality 100.0 %
Test CRC 6A815F66
Copy CRC 6A815F66
Track not present in AccurateRip database
Copy OK

Track 2

Filename D:\Flac Rips\02 - Motherless Children.wav

Peak level 100.0 %
Extraction speed 4.0 X
Track quality 100.0 %
Test CRC 9C227C22
Copy CRC 9C227C22
Track not present in AccurateRip database
Copy OK

Track 3

Filename D:\Flac Rips\03 - Little Queen of Spades.wav

Peak level 100.0 %
Extraction speed 5.2 X
Track quality 100.0 %
Test CRC 6560A0DF
Copy CRC 6560A0DF
Track not present in AccurateRip database
Copy OK

Track 4

Filename D:\Flac Rips\04 - Further On Up The Road.wav

Peak level 100.0 %
Extraction speed 5.7 X
Track quality 100.0 %
Test CRC 00DF024C
Copy CRC 00DF024C
Track not present in AccurateRip database
Copy OK

Track 5

Filename D:\Flac Rips\05 - Wonderful Tonight.wav

Peak level 100.0 %
Extraction speed 4.7 X
Track quality 99.9 %
Test CRC 0BE03754
Copy CRC 0BE03754
Track not present in AccurateRip database
Copy OK

Track 6

Filename D:\Flac Rips\06 - Layla.wav

Peak level 100.0 %
Extraction speed 6.5 X
Track quality 100.0 %
Test CRC 98408382
Copy CRC 98408382
Track not present in AccurateRip database
Copy OK

Track 7

Filename D:\Flac Rips\07 - Crossroads.wav

Peak level 100.0 %
Extraction speed 4.4 X
Track quality 99.9 %
Test CRC C8A50BF4
Copy CRC C8A50BF4
Track not present in AccurateRip database
Copy OK


None of the tracks are present in the AccurateRip database

No errors occurred

End of status report

–– CUETools DB Plugin V2.1.6

[CTDB TOCID: J_uvQFMgjrsPlTn_nfKwA3h2hNw-] found
Submit result: J_uvQFMgjrsPlTn_nfKwA3h2hNw- has been confirmed
Track | CTDB Status
1 | (20/20) Accurately ripped
2 | (20/20) Accurately ripped
3 | (20/20) Accurately ripped
4 | (20/20) Accurately ripped
5 | (20/20) Accurately ripped
6 | (20/20) Accurately ripped
7 | (20/20) Accurately ripped


==== Log checksum BA4E839862809629A97403D7CD7042A21428909F576F58117F2ECF24391E5255 ====


––––––––––––––––––––––––––––––––––––––––
Analyzed: Eric Clapton / Live in San Diego With Special Guest JJ Cale (Disc 1)
––––––––––––––––––––––––––––––––––––––––

DR Peak RMS Duration Track
––––––––––––––––––––––––––––––––––––––––
DR7 0.00 dB -8.55 dB 6:23 01-Tell The Truth
DR7 0.00 dB -8.51 dB 4:12 02-Key To The Highway
DR8 0.00 dB -10.17 dB 9:35 03-Got To Get Better In A Little While
DR8 0.00 dB -9.77 dB 6:58 04-Little Wing
DR8 0.00 dB -9.06 dB 6:05 05-Anyday
DR10 0.00 dB -12.32 dB 5:32 06-Anyway The Wind Blows
DR8 0.00 dB -10.13 dB 5:44 07-After Midnight
DR10 0.00 dB -11.72 dB 4:52 08-Who Am I Telling You?
DR8 0.00 dB -9.34 dB 3:33 09-Don't Cry Sister
––––––––––––––––––––––––––––––––––––––––

Number of tracks: 9
Official DR value: DR8

Samplerate: 44100 Hz
Channels: 2
Bits per sample: 16
Bitrate: 974 kbps
Codec: FLAC
================================================================================
––––––––––––––––––––––––––––––––––––––––
Analyzed: Eric Clapton / Live in San Diego With Special Guest JJ Cale (Disc 2)
––––––––––––––––––––––––––––––––––––––––

DR Peak RMS Duration Track
––––––––––––––––––––––––––––––––––––––––
DR7 0.00 dB -8.99 dB 5:31 01-Cocaine
DR8 0.00 dB -9.60 dB 5:23 02-Motherless Children
DR9 0.00 dB -11.60 dB 17:21 03-Little Queen of Spades
DR9 0.00 dB -10.72 dB 6:49 04-Further On Up The Road
DR10 0.00 dB -12.30 dB 4:31 05-Wonderful Tonight
DR9 0.00 dB -10.50 dB 8:25 06-Layla
DR8 0.00 dB -9.75 dB 6:55 07-Crossroads
––––––––––––––––––––––––––––––––––––––––

Number of tracks: 7
Official DR value: DR9

Samplerate: 44100 Hz
Channels: 2
Bits per sample: 16
Bitrate: 1043 kbps
Codec: FLAC
================================================================================

Eric Clapton - Live In San Diego With Special Guest JJ Cale (2016) [2CDs] {Reprise}
Eric Clapton - Live In San Diego With Special Guest JJ Cale (2016) [2CDs] {Reprise}
Eric Clapton - Live In San Diego With Special Guest JJ Cale (2016) [2CDs] {Reprise}


Thanks to the original ripper