Subcategories

Eric Clapton - Old Sock (2013)

Posted By: hill0
Eric Clapton - Old Sock (2013)

Eric Clapton - Old Sock (2013)
EAC Rip | FLAC (tracks & cue & log) | 335 MB | MP3 CBR 320 kbps | 123 MB | Artwork (JPEG 600) | 28 MB | 53:48
Genre: Pop Rock / Blues Rock / Country Rock | Country: UK | Label: Bushbranch Records | 3733098

On the heels of a sold-out Crossroads Guitar Festival and the announcement of a major world tour, Eric Clapton announced the release of his 21st studio album and his first album since 2010. The album, Old Sock produced by Eric Clapton, Doyle Bramhall II, Justin Stanley and Simon Climie, features two original songs "Every Little Thing" and "Gotta Get Over. " Old Sock is released on Clapton s Bushbranch label, distributed through a collaboration with Surfdog Records in the USA and Canada.
The album is a collection of some of Clapton s favorite songs spanning from his childhood to present day that highlights his vast appreciation and knowledge of music. From Leadbelly to J.J. Cale; Peter Tosh to George Gershwin; Hank Snow to Gary Moore and Taj Mahal, this record is a celebration of so many who have inspired Clapton s rich musical life. Clapton has always had a remarkable ability to recognize great songs and a gift for knowing how to uniquely interpret them, as he does on Old Sock. The album explores romantic standards of the 30's, reggae, soul, rock, and includes a stand out playful collaboration with Paul McCartney, to create an experience that is quintessential Clapton.
Clapton assembled a band for the recordings consisting of longtime collaborators Steve Gadd (drums), Willie Weeks (bass) and Chris Stainton (keyboards) along with some surprise guest additions. JJ Cale joins the song "Angel" for backing vocals and guitar, Chaka Khan joins as backing vocalist for "Get On Over, " Steve Winwood on the Hammond B3 Organ on "Still Got The Blues, " Paul McCartney on bass/vocals on "All of Me, " Jim Keltner on drums for "Our Love is Here To Stay. "

discogs
allmusic

Tracklist:

01."Further on Down the Road" (Featuring Taj Mahal) (Taj Mahal & Jesse E. Davis) 5:42
02."Angel" (Featuring JJ Cale) (J.J. Cale) 3:53
03."The Folks Who Live On the Hill" (Oscar Hammerstein II and Jerome Kern) 3:44
04."Gotta Get Over" (Featuring Chaka Khan) (Doyle Bramnham II, Justin Stanley and Nikka Costa) 4:36
05."Till Your Well Runs Dry" (Peter Tosh) 4:40
06."All of Me" (Featuring Paul McCartney) (Gerald Marks and Seymour Simons) 3:22
07."Born to Lose" (Ted Daffan) 4:01
08."Still Got the Blues" (Featuring Steve Winwood) (Gary Moore) 5:52
09."Goodnight Irene" (Huddie Ledbetter) 4:20
10."Your One and Only Man" (Otis Redding) 4:27
11."Every Little Thing" (Doyle Bramnham II, Justin Stanley and Nikka Costa) 4:31
12."Our Love Is Here to Stay" (George Gershwin and Ira Gershwin) 4:11

Exact Audio Copy V1.0 beta 3 from 29. August 2011

EAC extraction logfile from 29. March 2013, 13:52

Eric Clapton / Old Sock

Used drive : PIONEER DVD-RW DVR-111D Adapter: 5 ID: 1

Read mode : Secure
Utilize accurate stream : Yes
Defeat audio cache : Yes
Make use of C2 pointers : No

Read offset correction : 48
Overread into Lead-In and Lead-Out : No
Fill up missing offset samples with silence : Yes
Delete leading and trailing silent blocks : No
Null samples used in CRC calculations : Yes
Used interface : Native Win32 interface for Win NT & 2000
Gap handling : Appended to previous track

Used output format : User Defined Encoder
Selected bitrate : 256 kBit/s
Quality : High
Add ID3 tag : No
Command line compressor : C:\Archivos de programa\Exact Audio Copy\FLAC\FLAC.EXE
Additional command line options : -8 -V -T "ARTIST=%artist%" -T "TITLE=%title%" -T "ALBUM=%albumtitle%" -T "DATE=%year%" -T "TRACKNUMBER=%tracknr%" -T "TOTALTRACKS=%numtracks%" -T "GENRE=%genre%" -T "ALBUMARTIST=%albumartist%" -T "ALBUM ARTIST=%albumartist%" -T "COMMENT=EAC Secure Mode, Test & Copy, AccurateRip, FLAC -8" %source%


TOC of the extracted CD

Track | Start | Length | Start sector | End sector
––––––––––––––––––––––––––––-
1 | 0:00.00 | 5:44.37 | 0 | 25836
2 | 5:44.37 | 3:54.03 | 25837 | 43389
3 | 9:38.40 | 3:46.22 | 43390 | 60361
4 | 13:24.62 | 4:37.60 | 60362 | 81196
5 | 18:02.47 | 4:42.30 | 81197 | 102376
6 | 22:45.02 | 3:22.47 | 102377 | 117573
7 | 26:07.49 | 4:03.37 | 117574 | 135835
8 | 30:11.11 | 5:54.57 | 135836 | 162442
9 | 36:05.68 | 4:23.23 | 162443 | 182190
10 | 40:29.16 | 4:30.59 | 182191 | 202499
11 | 45:00.00 | 4:34.43 | 202500 | 223092
12 | 49:34.43 | 4:12.55 | 223093 | 242047


Track 1

Filename D:\flac rips\01 - Further on down the road.wav

Pre-gap length 0:00:02.00

Peak level 100.0 %
Extraction speed 4.8 X
Track quality 100.0 %
Test CRC 1951872D
Copy CRC 1951872D
Track not present in AccurateRip database
Copy OK

Track 2

Filename D:\flac rips\02 - Angel.wav

Pre-gap length 0:00:00.73

Peak level 100.0 %
Extraction speed 4.5 X
Track quality 99.9 %
Test CRC 570BA0ED
Copy CRC 570BA0ED
Track not present in AccurateRip database
Copy OK

Track 3

Filename D:\flac rips\03 - The folks who live on the hill.wav

Pre-gap length 0:00:00.50

Peak level 99.1 %
Extraction speed 5.4 X
Track quality 100.0 %
Test CRC 2D31AB51
Copy CRC 2D31AB51
Track not present in AccurateRip database
Copy OK

Track 4

Filename D:\flac rips\04 - Gotta get over.wav

Pre-gap length 0:00:01.51

Peak level 100.0 %
Extraction speed 6.0 X
Track quality 100.0 %
Test CRC 20EA6767
Copy CRC 20EA6767
Track not present in AccurateRip database
Copy OK

Track 5

Filename D:\flac rips\05 - Till your well runs dry.wav

Pre-gap length 0:00:01.59

Peak level 100.0 %
Extraction speed 6.4 X
Track quality 100.0 %
Test CRC 88C93294
Copy CRC 88C93294
Track not present in AccurateRip database
Copy OK

Track 6

Filename D:\flac rips\06 - All of me.wav

Pre-gap length 0:00:02.11

Peak level 99.6 %
Extraction speed 6.4 X
Track quality 100.0 %
Test CRC 7D77CB3B
Copy CRC 7D77CB3B
Track not present in AccurateRip database
Copy OK

Track 7

Filename D:\flac rips\07 - Born to lose.wav

Pre-gap length 0:00:00.64

Peak level 99.7 %
Extraction speed 6.8 X
Track quality 100.0 %
Test CRC 3DB50C78
Copy CRC 3DB50C78
Track not present in AccurateRip database
Copy OK

Track 8

Filename D:\flac rips\08 - Still got the blues.wav

Pre-gap length 0:00:02.54

Peak level 99.1 %
Extraction speed 7.4 X
Track quality 100.0 %
Test CRC 133D6D32
Copy CRC 133D6D32
Track not present in AccurateRip database
Copy OK

Track 9

Filename D:\flac rips\09 - Goodnight Irene.wav

Pre-gap length 0:00:02.60

Peak level 99.8 %
Extraction speed 7.5 X
Track quality 100.0 %
Test CRC D0B5D9E3
Copy CRC D0B5D9E3
Track not present in AccurateRip database
Copy OK

Track 10

Filename D:\flac rips\10 - Your one and only man.wav

Pre-gap length 0:00:02.70

Peak level 100.0 %
Extraction speed 7.8 X
Track quality 100.0 %
Test CRC 32B8BBB5
Copy CRC 32B8BBB5
Track not present in AccurateRip database
Copy OK

Track 11

Filename D:\flac rips\11 - Every little thing.wav

Pre-gap length 0:00:03.22

Peak level 100.0 %
Extraction speed 7.2 X
Track quality 99.9 %
Test CRC 685D3959
Copy CRC 685D3959
Track not present in AccurateRip database
Copy OK

Track 12

Filename D:\flac rips\12 - Our love is here to stay.wav

Pre-gap length 0:00:03.00

Peak level 97.6 %
Extraction speed 8.1 X
Track quality 100.0 %
Test CRC 0605120F
Copy CRC 0605120F
Track not present in AccurateRip database
Copy OK


None of the tracks are present in the AccurateRip database

No errors occurred

End of status report

==== Log checksum C2BA1743B49F95D9A19D6E7BAC13664DEC302606467052C233D54B463876699E ====


Released with 12-pages lyrics booklet.

Made in Australia

© ℗ 2013 Eric Clapton under exclusive license to Polydor.


All thanks to original releaser

Eric Clapton - Old Sock (2013)
Eric Clapton - Old Sock (2013)