Subcategories

Erik Norlander - Hommage Symphonique (2006)

Posted By: gribovar
Erik Norlander - Hommage Symphonique (2006)

Erik Norlander - Hommage Symphonique (2006)
EAC Rip | FLAC (tracks+.cue+log) - 434 MB | MP3 CBR 320 kbps (LAME 3.93) - 156 MB | Covers - 70 MB
Genre: Progressive Rock | RAR 3% Rec. | Label: Think Tank Media (TTMD-1052)

Hommage Symphonique is an album of progressive rock covers recorded by master keyboardist Erik Norlander along with the virtuoso band of Gregg Bissonette, Don Schiff and Mark McCrite with Kelly Keeling handling all of the vocal duties. Erik also employed a small ensemble of acoustic instruments featuring Jon Pappenbrook (trumpets flugelhorn), Eric Jorgensen (trombones), Mike Alvarez (cello) and David Schiff (woodwinds). David is the brother of Don Schiff, and in addition to Don's NS/Stick work on the album, he also fills out the acoustic string ensemble with the new Bowed Guitar instrument. Erik's choice of covers reflects his own broad musical taste, performing songs originally recorded by ELP, ELO, Yes, Rick Wakeman, King Crimson, Procol Harum and Jethro Tull and Chuck Mangione. The last artist may sound the most surprising, but Erik's stirring rendition of Mangione's "Children of Sanchez" brings this jazz - fusion classic more into Erik's world of symphonic progressive rock supported by his seasoned and highly versatile band.

Tracklist:
01. Conquistador (Procol Harum cover)
02. Sir Lancelot and the Black Knight (Rick Wakeman cover)
03. Turn of the Century (Yes cover)
04. Pirates (ELP cover)
05. Clasp (Jethro Tull cover)
06. King of the Universe (ELO cover)
07. Children of Sanchez Overture (Chuck Mangione cover)
08. Starless (King Crimson cover)

Total time: 01:06:25

Exact Audio Copy V1.0 beta 3 from 29. August 2011

EAC extraction logfile from 2. March 2018, 19:27

Erik Norlander / Hommage Symphonique

Used drive : HL-DT-STDVDRAM GH24NSB0 Adapter: 3 ID: 0

Read mode : Secure
Utilize accurate stream : Yes
Defeat audio cache : Yes
Make use of C2 pointers : No

Read offset correction : 6
Overread into Lead-In and Lead-Out : No
Fill up missing offset samples with silence : Yes
Delete leading and trailing silent blocks : No
Null samples used in CRC calculations : Yes
Used interface : Native Win32 interface for Win NT & 2000
Gap handling : Appended to previous track

Used output format : User Defined Encoder
Selected bitrate : 128 kBit/s
Quality : High
Add ID3 tag : No
Command line compressor : C:\Program Files\Exact Audio Copy\FLAC\FLAC.EXE
Additional command line options : -8 -V -T "ARTIST=%artist%" -T "TITLE=%title%" -T "ALBUM=%albumtitle%" -T "DATE=%year%" -T "TRACKNUMBER=%tracknr%" -T "TOTALTRACKS=%numtracks%" -T "GENRE=%genre%" -T "ALBUMARTIST=%albumartist%" -T "ALBUM ARTIST=%albumartist%" -T "COMMENT=EAC Secure Mode, Test & Copy, AccurateRip, FLAC -8" %source%


TOC of the extracted CD

Track | Start | Length | Start sector | End sector
––––––––––––––––––––––––––––-
1 | 0:00.00 | 4:10.40 | 0 | 18789
2 | 4:10.40 | 7:20.31 | 18790 | 51820
3 | 11:30.71 | 7:41.21 | 51821 | 86416
4 | 19:12.17 | 13:35.49 | 86417 | 147590
5 | 32:47.66 | 4:53.03 | 147591 | 169568
6 | 37:40.69 | 7:13.55 | 169569 | 202098
7 | 44:54.49 | 9:26.14 | 202099 | 244562
8 | 54:20.63 | 12:04.27 | 244563 | 298889


Track 1

Filename G:\Veushka\Erik Norlander - Hommage Symphonique 2006\01 - - Conquistador.wav

Pre-gap length 0:00:02.00

Peak level 98.8 %
Extraction speed 1.0 X
Track quality 100.0 %
Test CRC 892D37EF
Copy CRC 892D37EF
Accurately ripped (confidence 4) [E15CD415] (AR v2)
Copy OK

Track 2

Filename G:\Veushka\Erik Norlander - Hommage Symphonique 2006\02 - - Sir Lancelot and the Black Knight.wav

Pre-gap length 0:00:02.00

Peak level 98.8 %
Extraction speed 1.3 X
Track quality 100.0 %
Test CRC 3D509EE6
Copy CRC 3D509EE6
Accurately ripped (confidence 4) [9885D615] (AR v2)
Copy OK

Track 3

Filename G:\Veushka\Erik Norlander - Hommage Symphonique 2006\03 - - Turn of the Century.wav

Peak level 98.8 %
Extraction speed 1.5 X
Track quality 100.0 %
Test CRC 839B6EE4
Copy CRC 839B6EE4
Accurately ripped (confidence 4) [C82645EA] (AR v2)
Copy OK

Track 4

Filename G:\Veushka\Erik Norlander - Hommage Symphonique 2006\04 - - Pirates.wav

Pre-gap length 0:00:03.00

Peak level 98.8 %
Extraction speed 1.7 X
Track quality 100.0 %
Test CRC 46B37CBB
Copy CRC 46B37CBB
Accurately ripped (confidence 4) [88991744] (AR v2)
Copy OK

Track 5

Filename G:\Veushka\Erik Norlander - Hommage Symphonique 2006\05 - - Clasp.wav

Pre-gap length 0:00:03.00

Peak level 98.8 %
Extraction speed 1.8 X
Track quality 100.0 %
Test CRC 016CCE11
Copy CRC 016CCE11
Accurately ripped (confidence 4) [331E1B3D] (AR v2)
Copy OK

Track 6

Filename G:\Veushka\Erik Norlander - Hommage Symphonique 2006\06 - - King of the Universe.wav

Pre-gap length 0:00:02.00

Peak level 98.8 %
Extraction speed 2.0 X
Track quality 100.0 %
Test CRC B9616F83
Copy CRC B9616F83
Accurately ripped (confidence 4) [DF33DEBC] (AR v2)
Copy OK

Track 7

Filename G:\Veushka\Erik Norlander - Hommage Symphonique 2006\07 - - Children of Sanchez Overture.wav

Pre-gap length 0:00:04.00

Peak level 98.8 %
Extraction speed 2.2 X
Track quality 100.0 %
Test CRC 34C677B5
Copy CRC 34C677B5
Accurately ripped (confidence 4) [511936E8] (AR v2)
Copy OK

Track 8

Filename G:\Veushka\Erik Norlander - Hommage Symphonique 2006\08 - - Starless.wav

Pre-gap length 0:00:01.37

Peak level 98.8 %
Extraction speed 2.4 X
Track quality 100.0 %
Test CRC 17364081
Copy CRC 17364081
Accurately ripped (confidence 3) [F939745C] (AR v2)
Copy OK


All tracks accurately ripped

No errors occurred

End of status report

–– CUETools DB Plugin V2.1.3

[CTDB TOCID: OjF_LnrWwHxW3VFNX8QzT_ZTab8-] found, Submit result: already submitted
[0157b5ca] (1/3) No match
[08d4f8ec] (2/3) Accurately ripped


==== Log checksum 7DB0D264421836F412A6FF8DE3F45CB5330A0BE7702A094EC16298CDE659835B ====

[CUETools log; Date: 01.04.2018 12:32:25; Version: 2.1.4]
[CTDB TOCID: OjF_LnrWwHxW3VFNX8QzT_ZTab8-] found.
Track | CTDB Status
1 | (3/3) Accurately ripped
2 | (3/3) Accurately ripped
3 | (3/3) Accurately ripped
4 | (2/3) Accurately ripped
5 | (3/3) Accurately ripped
6 | (3/3) Accurately ripped
7 | (3/3) Accurately ripped
8 | (3/3) Accurately ripped
[AccurateRip ID: 00129c9c-007f7dd8-700f9108] found.
Track [ CRC | V2 ] Status
01 [5fa5e9d2|e15cd415] (2+4/6) Accurately ripped
02 [8c6d2917|9885d615] (2+4/6) Accurately ripped
03 [06fe8eaf|c82645ea] (2+4/6) Accurately ripped
04 [ad79b942|88991744] (2+4/6) Accurately ripped
05 [a51bfe48|331e1b3d] (2+4/6) Accurately ripped
06 [3201a23e|df33debc] (2+4/6) Accurately ripped
07 [e2531c62|511936e8] (2+4/6) Accurately ripped
08 [d8ced4f6|f939745c] (2+3/5) Accurately ripped

Track Peak [ CRC32 ] [W/O NULL] [ LOG ]
– 98,8 [9B072114] [8F969CF4]
01 98,8 [892D37EF] [62F86F09] CRC32
02 98,8 [3D509EE6] [767ABA72] CRC32
03 98,8 [839B6EE4] [A672BEF9] CRC32
04 98,8 [46B37CBB] [5CE9212F] CRC32
05 98,8 [016CCE11] [B0C84A33] CRC32
06 98,8 [B9616F83] [9E8A0D1E] CRC32
07 98,8 [34C677B5] [7456A5A8] CRC32
08 98,8 [17364081] [620CCEDF] CRC32

Thanks to veushka