Subcategories

Erroll Garner - 1953-1954 (2006)

Posted By: gribovar
Erroll Garner - 1953-1954 (2006)

Erroll Garner - 1953-1954 (2006)
EAC Rip | FLAC (tracks+.cue+log) - 251 MB | MP3 CBR 320 kbps (LAME 3.93) - 176 MB | Covers (5 MB) included
Genre: Jazz | RAR 3% Rec. | Label: Classics Records (CLASSICS1423)

The 16th installment in the Classics Erroll Garner chronology combines eight numbers recorded for Columbia in New York on March 30, 1953; eight more for the same label cut in Detroit on July 8, 1954; and two tracks for Mercury Records in Chicago on July 27, 1954. At this point in his career, Garner became increasingly inventive, expressive, and rambunctious, as his bluesy take on Jerome Kern's "Yesterdays" and knuckle-busting renditions of "Frenesi" and "Oh, What a Beautiful Mornin'" illustrate. The Detroit session is remarkable for the presence of Woody Herman. Familiar to the public as a clarinet-blowing big-band leader with a penchant for rowdy novelty tunes and a tendency, during the late '40s, to employ young musicians with bop sensibilities, Herman appears with the Erroll Garner Trio as a warm and persuasive vocalist. Track nine, a medley lasting nearly 11 minutes, traces a progression from new love to romance to hopeless infatuation to heartbreak. Each successive vocal track is a gem, and the mutual enjoyment felt by Herman and Garner is palpable. Throughout this entire compilation, Garner's bassist was Pittsburgh native Wyatt "Bull" Ruther and his drummer was Eugene "Fats" Heard, who had worked with Lionel Hampton and Coleman Hawkins and who would leave Garner's band in 1955 to settle down and make steady money as a businessman in his hometown of Cleveland, OH. This album closes with two examples of what the Erroll Garner Trio sounded like when spiced up by the conga drumming of Cuban percussionist Candido Camero.
Tracklist:
01. Yesterdays
02. Frenesi
03. Oh, What A Beautiful Mornin'
04. Groovy Day (3:43)
05. Please Don't Talk About Me When I'm Gone
06. For Heaven's Sake
07. Lullaby Of Birdland
08. Holiday For Strings
09. Let's Fall In Love
10. I'm Beginning To See The Light
11. My Melancholy Baby
12. I Hadn't Anyone 'Till You
13. After You've Gone
14. I'll See You In My Dreams
15. If I Could Be With You
16. As Time Goes By
17. That Old Black Magic
18. Russian Lullaby

Total time: 01:12:25

EAC extraction logfile from 1. February 2008, 19:48 for CD
Various / 1953-1954

Used drive : HL-DT-STCDRW/DVD GCC4482 Adapter: 1 ID: 0
Read mode : Secure with NO C2, accurate stream, disable cache
Read offset correction : 6
Overread into Lead-In and Lead-Out : No

Used output format : C:\Eac\Codecs\flac.exe (User Defined Encoder)
320 kBit/s
Additional command line options : -8 -V -T "artist=%a" -T "title=%t" -T "album=%g" -T "date=%y" -T "tracknumber=%n" -T "genre=%m" -T "comment=EAC Flac 1.1.2 -8" %s

Other options :
Fill up missing offset samples with silence : Yes
Delete leading and trailing silent blocks : No
Installed external ASPI interface


Track 1
Filename C:\Documents and Settings\garner\01 - Yesterdays.wav

Pre-gap length 0:00:02.00

Peak level 99.4 %
Track quality 100.0 %
Test CRC 3B0E0E90
Copy CRC 3B0E0E90
Copy OK

Track 2
Filename C:\Documents and Settings\garner\02 - Frenesi.wav

Pre-gap length 0:00:02.60

Peak level 99.4 %
Track quality 99.9 %
Test CRC 6138FD41
Copy CRC 6138FD41
Copy OK

Track 3
Filename C:\Documents and Settings\garner\03 - Oh, What A Beautiful Mornin'.wav

Pre-gap length 0:00:02.60

Peak level 99.4 %
Track quality 100.0 %
Test CRC C44DBC71
Copy CRC C44DBC71
Copy OK

Track 4
Filename C:\Documents and Settings\garner\04 - Groovy Day.wav

Pre-gap length 0:00:02.60

Peak level 99.4 %
Track quality 100.0 %
Test CRC 55A99957
Copy CRC 55A99957
Copy OK

Track 5
Filename C:\Documents and Settings\garner\05 - Please Don't Talk About Me When I'm Gone.wav

Pre-gap length 0:00:02.60

Peak level 99.4 %
Track quality 100.0 %
Test CRC AD12D747
Copy CRC AD12D747
Copy OK

Track 6
Filename C:\Documents and Settings\garner\06 - For Heaven's Sake.wav

Pre-gap length 0:00:02.60

Peak level 99.4 %
Track quality 99.9 %
Test CRC D5222AA5
Copy CRC D5222AA5
Copy OK

Track 7
Filename C:\Documents and Settings\garner\07 - Lullaby Of Birdland.wav

Pre-gap length 0:00:02.60

Peak level 99.4 %
Track quality 99.9 %
Test CRC E15DBE93
Copy CRC E15DBE93
Copy OK

Track 8
Filename C:\Documents and Settings\garner\08 - Holiday For Strings.wav

Pre-gap length 0:00:02.60

Peak level 99.4 %
Track quality 100.0 %
Test CRC 130E6C21
Copy CRC 130E6C21
Copy OK

Track 9
Filename C:\Documents and Settings\garner\09 - Let's Fall In Love.wav

Pre-gap length 0:00:02.60

Peak level 99.4 %
Track quality 100.0 %
Test CRC 5871D026
Copy CRC 5871D026
Copy OK

Track 10
Filename C:\Documents and Settings\garner\10 - I'm Beginning To See The Light.wav

Pre-gap length 0:00:02.60

Peak level 99.4 %
Track quality 100.0 %
Test CRC 6BD6FDE1
Copy CRC 6BD6FDE1
Copy OK

Track 11
Filename C:\Documents and Settings\garner\11 - My Melancholy Baby.wav

Pre-gap length 0:00:02.60

Peak level 99.4 %
Track quality 100.0 %
Test CRC 2456090C
Copy CRC 2456090C
Copy OK

Track 12
Filename C:\Documents and Settings\garner\12 - I Hadn't Anyone' Till You.wav

Pre-gap length 0:00:02.60

Peak level 99.4 %
Track quality 100.0 %
Test CRC 7862ADA3
Copy CRC 7862ADA3
Copy OK

Track 13
Filename C:\Documents and Settings\garner\13 - After You've Gone.wav

Pre-gap length 0:00:02.60

Peak level 99.4 %
Track quality 100.0 %
Test CRC AFCCCA7B
Copy CRC AFCCCA7B
Copy OK

Track 14
Filename C:\Documents and Settings\garner\14 - I'll See You In My Dreams.wav

Pre-gap length 0:00:02.60

Peak level 99.4 %
Track quality 100.0 %
Test CRC F3CD0F46
Copy CRC F3CD0F46
Copy OK

Track 15
Filename C:\Documents and Settings\garner\15 - If I Could Be With You.wav

Pre-gap length 0:00:02.60

Peak level 99.4 %
Track quality 100.0 %
Test CRC 77EFCDE7
Copy CRC 77EFCDE7
Copy OK

Track 16
Filename C:\Documents and Settings\garner\16 - As Time Goes By.wav

Pre-gap length 0:00:02.60

Peak level 99.4 %
Track quality 100.0 %
Test CRC FA400FC9
Copy CRC FA400FC9
Copy OK

Track 17
Filename C:\Documents and Settings\garner\17 - That Old Black Magic.wav

Pre-gap length 0:00:02.60

Peak level 99.4 %
Track quality 99.9 %
Test CRC 3AE1426D
Copy CRC 3AE1426D
Copy OK

Track 18
Filename C:\Documents and Settings\garner\18 - Russian Lullaby.wav

Pre-gap length 0:00:02.60

Peak level 99.4 %
Track quality 100.0 %
Test CRC BA77E2DD
Copy CRC BA77E2DD
Copy OK

No errors occured


End of status report

[CUETools log; Date: 16.05.2018 15:38:12; Version: 2.1.4]
[CTDB TOCID: .UtPDdGzc8_Ie7CVGs5IwzbdiUg-] found.
Track | CTDB Status
1 | (1/1) Accurately ripped
2 | (1/1) Accurately ripped
3 | (1/1) Accurately ripped
4 | (1/1) Accurately ripped
5 | (1/1) Accurately ripped
6 | (1/1) Accurately ripped
7 | (1/1) Accurately ripped
8 | (1/1) Accurately ripped
9 | (1/1) Accurately ripped
10 | (1/1) Accurately ripped
11 | (1/1) Accurately ripped
12 | (1/1) Accurately ripped
13 | (1/1) Accurately ripped
14 | (1/1) Accurately ripped
15 | (1/1) Accurately ripped
16 | (1/1) Accurately ripped
17 | (1/1) Accurately ripped
18 | (1/1) Accurately ripped
[AccurateRip ID: 002eb45c-0273a580-1610f812] found.
Track [ CRC | V2 ] Status
01 [26e88de6|eb932b59] (1+1/2) Accurately ripped
02 [ed260c5e|06865229] (1+1/2) Accurately ripped
03 [8ae91674|7bb00a00] (1+1/2) Accurately ripped
04 [aebb47de|385ec44a] (1+1/2) Accurately ripped
05 [b7b601d4|0bf90174] (1+1/2) Accurately ripped
06 [445a46c1|8a225d6a] (1+1/2) Accurately ripped
07 [875b5671|d5061fd2] (1+1/2) Accurately ripped
08 [8167b9ad|0992936d] (1+1/2) Accurately ripped
09 [ef793de8|72ae38d7] (1+1/2) Accurately ripped
10 [2fe682df|098381bb] (1+1/2) Accurately ripped
11 [ef2eb137|e124f861] (1+1/2) Accurately ripped
12 [81e45bdf|3c5a1deb] (1+1/2) Accurately ripped
13 [fbf76995|4c0d0550] (1+1/2) Accurately ripped
14 [1e1b45c4|aa6e4382] (1+1/2) Accurately ripped
15 [13f205a2|a4bbc5d2] (1+1/2) Accurately ripped
16 [7551bf2b|e5b00463] (1+1/2) Accurately ripped
17 [b1c6ae94|7ca1e44a] (1+1/2) Accurately ripped
18 [ca3fb385|9a67ee8d] (1+1/2) Accurately ripped

Track Peak [ CRC32 ] [W/O NULL] [ LOG ]
– 99,4 [4D930A29] [8A29EB6F]
01 99,4 [3B0E0E90] [E5E43A9E] CRC32
02 99,4 [6138FD41] [CB1D7999] CRC32
03 99,4 [C44DBC71] [EC933522] CRC32
04 99,4 [55A99957] [01CE9F47] CRC32
05 99,4 [AD12D747] [44C421DC] CRC32
06 99,4 [D5222AA5] [26014A2A] CRC32
07 99,4 [E15DBE93] [52ECDE98] CRC32
08 99,4 [130E6C21] [F04962FC] CRC32
09 99,4 [5871D026] [E6C4D9A2] CRC32
10 99,4 [6BD6FDE1] [BC256FDC] CRC32
11 99,4 [2456090C] [E0C5812B] CRC32
12 99,4 [7862ADA3] [63C7A1C5] CRC32
13 99,4 [AFCCCA7B] [5E184019] CRC32
14 99,4 [F3CD0F46] [2225B44B] CRC32
15 99,4 [77EFCDE7] [C4685A07] CRC32
16 99,4 [FA400FC9] [A63A91E1] CRC32
17 99,4 [3AE1426D] [D214E49B] CRC32
18 99,4 [BA77E2DD] [D963717B] CRC32

Thanks to weejee