Subcategories

Cho-Liang Lin, Esa-Pekka Salonen - Jean Sibelius, Carl Nielsen: Violin Concertos (1988)

Posted By: Designol
Cho-Liang Lin, Esa-Pekka Salonen - Jean Sibelius, Carl Nielsen: Violin Concertos (1988)

Jean Sibelius, Carl Nielsen - Violin Concertos (1988)
Cho-Liang Lin, violin; Philharmonia Orchestra; Swedish RSO; Esa-Pekka Salonen, conductor

EAC | FLAC | Tracks (Cue&Log) ~ 280 Mb | Mp3 (CBR320) ~ 171 Mb | Scans included
Genre: Classical | Label: CBS | # MK 44548 | Time: 01:09:17

This sensational disc has served as a reference edition for both concertos since it was first issued back in the late 1980s. The Sibelius concerto is distinguished by the tension between Lin’s passionate and virtuosic account of the solo part and Salonen’s remarkable precision at the head of the orchestra. Listen, for example, to the remarkable rhythmic clarity at the opening of the finale, and to the way this serves to “float” Lin’s daredevil pyrotechnics up above. It’s just marvellous. The same holds true of the Nielsen–there is no finer account of this neglected concerto. It’s a rarity because in the finale Nielsen subordinates flash and dazzle to the work’s overall emotional arc, progressing from anger to contentment. That doesn’t mean the music isn’t excellent, or that Lin and Salonen’s performances aren’t gripping from first note to last. They tear into the opening movement with apt ferocity and find the necessary emotional resolution in the work’s amiable conclusion. The detailed, well-balanced sound ideally suits the interpretations. Essential.

Review by David Hurwitz, Classics Today

Jean Sibelius at Allmusic
Jean Sibelius at Wiki

Carl Nielsen at Allmusic
Carl Nielsen at Wiki

Cho-Liang Lin at Allmusic
Cho-Liang Lin at Wiki

Esa-Pekka Salonen at Allmusic
Esa-Pekka Salonen at Wiki

Cho-Liang Lin, violin
Philharmonia Orchestra (1-3)
Swedish Radio Symphony Orchestra (4-6)
Esa-Pekka Salonen, conductor

Tracklist:

Jean Sibelius (1865-1957)
Concerto for Violin & Orchestra in D minor, Op.47
01. I. Allegro moderato (16:44)
02. II. Adagio di molto (08:50)
03. III. Allegro ma non tanto (07:36)

Carl Nielsen (1865-1931)
Concerto for Violin & Orchestra, Op. 33
04. I. Largo (18:50)
05. II. Poco adagio (06:44)
06. III. Rondo: Allegretto scherzando (10:30)


Exact Audio Copy V1.1 from 23. June 2015

EAC extraction logfile from 30. June 2016, 14:35

Sibelius & Nielsen / Violin Concertos - Cho-Liang Lin

Used drive : PLEXTOR CD-R PREMIUM2 Adapter: 5 ID: 1

Read mode : Secure
Utilize accurate stream : Yes
Defeat audio cache : Yes
Make use of C2 pointers : No

Read offset correction : 30
Overread into Lead-In and Lead-Out : Yes
Fill up missing offset samples with silence : Yes
Delete leading and trailing silent blocks : No
Null samples used in CRC calculations : Yes
Used interface : Installed external ASPI interface
Gap handling : Appended to previous track

Used output format : User Defined Encoder
Selected bitrate : 896 kBit/s
Quality : High
Add ID3 tag : No
Command line compressor : C:\Program Files\Exact Audio Copy\Flac\flac.exe
Additional command line options : -6 -V -T "ARTIST=%artist%" -T "TITLE=%title%" -T "ALBUM=%albumtitle%" -T "DATE=%year%" -T "PERFORMER=%albuminterpret%" -T "TRACKNUMBER=%tracknr%" -T "TOTALTRACKS=%numtracks%" -T "GENRE=%genre%" -T "COMPOSER=%composer%" -T "ALBUMARTIST=%albumartist%" -T "ALBUM ARTIST=%albumartist%" -T "COMMENT=EAC Secure Mode, Test & Copy, AccurateRip, FLAC -6" %source%


TOC of the extracted CD

Track | Start | Length | Start sector | End sector
––––––––––––––––––––––––––––-
1 | 0:00.00 | 16:44.35 | 0 | 75334
2 | 16:44.35 | 8:50.65 | 75335 | 115149
3 | 25:35.25 | 7:36.70 | 115150 | 149419
4 | 33:12.20 | 18:50.07 | 149420 | 234176
5 | 52:02.27 | 6:44.15 | 234177 | 264491
6 | 58:46.42 | 10:30.58 | 264492 | 311799


Track 1

Filename D:\EAC extraction\01 - Sibelius - Violin Concerto, Op.47 - I. Allegro moderato.wav

Pre-gap length 0:00:02.00

Peak level 100.0 %
Extraction speed 1.9 X
Track quality 100.0 %
Test CRC 7CDB4C3C
Copy CRC 7CDB4C3C
Accurately ripped (confidence 5) [20BADEFF] (AR v2)
Copy OK

Track 2

Filename D:\EAC extraction\02 - Sibelius - Violin Concerto, Op.47 - II. Adagio di molto.wav

Pre-gap length 0:00:03.23

Peak level 96.4 %
Extraction speed 1.9 X
Track quality 99.9 %
Test CRC 52984759
Copy CRC 52984759
Accurately ripped (confidence 5) [C25F5C2B] (AR v2)
Copy OK

Track 3

Filename D:\EAC extraction\03 - Sibelius - Violin Concerto, Op.47 - III. Allegro ma non tanto.wav

Pre-gap length 0:00:01.40

Peak level 84.6 %
Extraction speed 1.9 X
Track quality 100.0 %
Test CRC 7EA3CF57
Copy CRC 7EA3CF57
Accurately ripped (confidence 5) [6DBB563E] (AR v2)
Copy OK

Track 4

Filename D:\EAC extraction\04 - Nielsen - Violin Concerto, Op.33 - I. Largo.wav

Pre-gap length 0:00:04.03

Peak level 100.0 %
Extraction speed 1.9 X
Track quality 99.9 %
Test CRC 32E6EDE9
Copy CRC 32E6EDE9
Accurately ripped (confidence 5) [4A1F074B] (AR v2)
Copy OK

Track 5

Filename D:\EAC extraction\05 - Nielsen - Violin Concerto, Op.33 - II. Poco adagio.wav

Pre-gap length 0:00:02.22

Peak level 25.9 %
Extraction speed 1.9 X
Track quality 100.0 %
Test CRC 50A2EEBF
Copy CRC 50A2EEBF
Accurately ripped (confidence 5) [64767B6A] (AR v2)
Copy OK

Track 6

Filename D:\EAC extraction\06 - Nielsen - Violin Concerto, Op.33 - III. Rondo; Allegretto scherzando.wav

Peak level 94.2 %
Extraction speed 1.9 X
Track quality 99.9 %
Test CRC 14256BBF
Copy CRC 14256BBF
Accurately ripped (confidence 5) [4175FB88] (AR v2)
Copy OK


All tracks accurately ripped

No errors occurred

End of status report

–– CUETools DB Plugin V2.1.6

[CTDB TOCID: HSONsh912E2d9OJ4kM4PlcdhzXQ-] found
Submit result: HSONsh912E2d9OJ4kM4PlcdhzXQ- has been confirmed
Track | CTDB Status
1 | (23/23) Accurately ripped
2 | (23/23) Accurately ripped
3 | (23/23) Accurately ripped
4 | (22/23) Accurately ripped
5 | (22/23) Accurately ripped
6 | (21/23) Accurately ripped


==== Log checksum B251B2FB80AE179F406DB174B8EA6C03A9246266FE69F70DCE1112E5182BAB2B ====

foobar2000 1.2 / Dynamic Range Meter 1.1.1
log date: 2016-07-01 15:07:02

––––––––––––––––––––––––––––––––––––––––
Analyzed: Sibelius & Nielsen / Violin Concertos - Cho-Liang Lin & Esa-Pekka Salonen
––––––––––––––––––––––––––––––––––––––––

DR Peak RMS Duration Track
––––––––––––––––––––––––––––––––––––––––
DR18 0.00 dB -24.93 dB 16:44 01-Sibelius: Concerto for Violin & Orchestra in D minor, Op.47 - I. Allegro moderato
DR16 -0.31 dB -24.34 dB 8:51 02-Sibelius: Concerto for Violin & Orchestra in D minor, Op.47 - II. Adagio di molto
DR15 -1.45 dB -23.57 dB 7:37 03-Sibelius: Concerto for Violin & Orchestra in D minor, Op.47 - III. Allegro ma non tanto
DR16 0.00 dB -23.30 dB 18:50 04-Nielsen: Concerto for Violin & Orchestra, Op. 33 - I. Largo
DR13 -11.72 dB -31.32 dB 6:44 05-Nielsen: Concerto for Violin & Orchestra, Op. 33 - II. Poco adagio
DR16 -0.51 dB -24.33 dB 10:31 06-Nielsen: Concerto for Violin & Orchestra, Op. 33 - III. Rondo: Allegretto scherzando
––––––––––––––––––––––––––––––––––––––––

Number of tracks: 6
Official DR value: DR16

Samplerate: 44100 Hz
Channels: 2
Bits per sample: 16
Bitrate: 537 kbps
Codec: FLAC
================================================================================

Cho-Liang Lin, Esa-Pekka Salonen - Jean Sibelius, Carl Nielsen: Violin Concertos (1988)

Cho-Liang Lin, Esa-Pekka Salonen - Jean Sibelius, Carl Nielsen: Violin Concertos (1988)

All thanks to original releaser - quivive

More interesting music in My Blog