Subcategories

Etta James - Life, Love & The Blues (1998)

Posted By: Designol
Etta James - Life, Love & The Blues (1998)

Etta James - Life, Love & The Blues (1998)
EAC | FLAC | Image (Cue&Log) ~ 427 Mb | Mp3 (CBR320) ~ 182 Mb | Scans included
Soul-Funk-Jazz-Blues | Label: Private | # 01005 82162 2 | Time: 00:59:38

Etta James followed her two deeply jazzy mid-'90s albums of torch songs with Love's Been Rough on Me, a flirtation with Nashville writers. On Life, Love & the Blues, she returns to her blues and soul repertoire, enlivening even the hoariest of tunes ("Spoonful," a gender-flopped "Hoochie Coochie Gal") with her growl. The tinges of funk underpinning "Born Under a Bad Sign" are given full room to stretch on a cover of Sly Stone's "If You Want Me to Stay," and James nearly swipes "The Love You Save May Be Your Own," one of Joe Tex's great preaching ballads, from the master.

Review by Rickey Wright

Etta James - Life, Love & The Blues (1998)



Tracklist:

01. Born Under A Bad Sign (3:29)
02. I Want To Ta Ta You, Baby (5:56)
03. Here I Am (Come And Take Me) (4:56)
04. Running Out Of Lies (5:04)
05. Inner City Blues (Make Me Wanna Holler) (7:02)
06. Spoonful (4:09)
07. Life, Love & The Blues (5:18)
08. Hoochie Coochie Gal (4:25)
09. Cheating In The Next Room (4:57)
10. If You Want Me To Stay (5:21)
11. The Love You Save May Be Your Own (4:02)
12. I'll Take Care Of You (4:59)


Exact Audio Copy V1.0 beta 4 from 7. December 2014

Отчёт EAC об извлечении, выполненном 31. марта 2015, 14:33

Etta James / Life, Love & The Blues

Дисковод: SONY CD-RW CRX230ED Adapter: 1 ID: 0

Режим чтения : Достоверность
Использование точного потока : Да
Отключение кэша аудио : Да
Использование указателей C2 : Нет

Коррекция смещения при чтении : 6
Способность читать области Lead-in и Lead-out : Нет
Заполнение пропущенных сэмплов тишиной : Да
Удаление блоков с тишиной в начале и конце : Нет
При вычислениях CRC использовались нулевые сэмплы : Да
Интерфейс : Встроенный Win32-интерфейс для Win NT/2000

Выходной формат : Внутренние WAV-операции
Формат сэмплов : 44.100 Гц; 16 бит; стерео


TOC извлечённого CD

Трек | Старт | Длительность | Начальный сектор | Конечный сектор
––––––––––––––––––––––––––––––––––-
1 | 0:00.00 | 3:29.25 | 0 | 15699
2 | 3:29.25 | 5:56.37 | 15700 | 42436
3 | 9:25.62 | 4:55.70 | 42437 | 64631
4 | 14:21.57 | 5:03.38 | 64632 | 87394
5 | 19:25.20 | 7:01.40 | 87395 | 119009
6 | 26:26.60 | 4:09.35 | 119010 | 137719
7 | 30:36.20 | 5:17.70 | 137720 | 161564
8 | 35:54.15 | 4:25.02 | 161565 | 181441
9 | 40:19.17 | 4:57.15 | 181442 | 203731
10 | 45:16.32 | 5:21.25 | 203732 | 227831
11 | 50:37.57 | 4:01.40 | 227832 | 245946
12 | 54:39.22 | 4:59.03 | 245947 | 268374


Характеристики диапазона извлечения и сообщения об ошибках

Выбранный диапазон

Имя файла F:\MusicCD\Torrent\Etta James - Life, Love & The Blues\Etta James - Life, Love & The Blues.wav

Пиковый уровень 100.0 %
Скорость извлечения 7.6 X
Качество диапазона 99.9 %
CRC теста 04171F95
CRC копии 04171F95
Копирование… OK

Ошибок не произошло


AccurateRip: сводка

Трек 1 : извлечено точно (доверие 19) [A3504257] (AR v2)
Трек 2 : извлечено точно (доверие 19) [817CA72B] (AR v2)
Трек 3 : извлечено точно (доверие 19) [B98EFF78] (AR v2)
Трек 4 : извлечено точно (доверие 19) [D7745560] (AR v2)
Трек 5 : извлечено точно (доверие 19) [060A7C90] (AR v2)
Трек 6 : извлечено точно (доверие 19) [A3D4758F] (AR v2)
Трек 7 : извлечено точно (доверие 19) [4C47AF42] (AR v2)
Трек 8 : извлечено точно (доверие 19) [D173CBE7] (AR v2)
Трек 9 : извлечено точно (доверие 19) [E31BD2A8] (AR v2)
Трек 10 : извлечено точно (доверие 19) [C61344D1] (AR v2)
Трек 11 : извлечено точно (доверие 19) [55D76628] (AR v2)
Трек 12 : извлечено точно (доверие 18) [9E14830D] (AR v2)

Все треки извлечены точно

Конец отчёта

–– CUETools DB Plugin V2.1.4

[CTDB TOCID: HMeYnJk9rZnAJDwc6IfHQ0_uo14-] found
Submit result: HMeYnJk9rZnAJDwc6IfHQ0_uo14- has been confirmed
Track | CTDB Status
1 | (86/87) Accurately ripped
2 | (86/87) Accurately ripped
3 | (85/87) Accurately ripped
4 | (86/87) Accurately ripped
5 | (85/87) Accurately ripped
6 | (85/87) Accurately ripped
7 | (86/87) Accurately ripped
8 | (85/87) Accurately ripped
9 | (85/87) Accurately ripped
10 | (85/87) Accurately ripped
11 | (85/87) Accurately ripped
12 | (83/87) Accurately ripped


==== Контрольная сумма отчёта AE56CB97C050988BB21C030B1FEC8D389B58631CEF2EA06BA5DFB3F52951054F ====

[CUETools log; Date: 27.07.2016 22:28:56; Version: 2.1.4]
[CTDB TOCID: HMeYnJk9rZnAJDwc6IfHQ0_uo14-] found.
Track | CTDB Status
1 | (135/138) Accurately ripped
2 | (135/138) Accurately ripped
3 | (134/138) Accurately ripped
4 | (135/138) Accurately ripped
5 | (134/138) Accurately ripped
6 | (133/138) Accurately ripped
7 | (134/138) Accurately ripped
8 | (134/138) Accurately ripped
9 | (134/138) Accurately ripped
10 | (133/138) Accurately ripped
11 | (134/138) Accurately ripped
12 | (133/138) Accurately ripped
[AccurateRip ID: 001aca8b-00fae0b4-a80dfa0c] found.
Track [ CRC | V2 ] Status
01 [89f89640|a3504257] (022+027/219) Accurately ripped
02 [0a45a8ec|817ca72b] (023+027/224) Accurately ripped
03 [816a2e13|b98eff78] (023+027/224) Accurately ripped
04 [10e703b1|d7745560] (023+027/222) Accurately ripped
05 [31c80198|060a7c90] (023+027/223) Accurately ripped
06 [9ae61e52|a3d4758f] (023+026/223) Accurately ripped
07 [7eee2a11|4c47af42] (023+027/225) Accurately ripped
08 [b20a3998|d173cbe7] (023+026/222) Accurately ripped
09 [79fa0755|e31bd2a8] (023+027/223) Accurately ripped
10 [3ab54fff|c61344d1] (023+026/225) Accurately ripped
11 [4694f756|55d76628] (023+027/226) Accurately ripped
12 [253d5642|9e14830d] (023+026/217) Accurately ripped
Offsetted by -2641:
01 [6b8f8205] (003/219) Accurately ripped
02 [7d6bed73] (004/224) Accurately ripped
03 [5bb2ee42] (004/224) Accurately ripped
04 [73818416] (004/222) Accurately ripped
05 [5b48638a] (004/223) Accurately ripped
06 [c9b2d1a4] (004/223) Accurately ripped
07 [df4a72cc] (004/225) Accurately ripped
08 [fa3b07ee] (003/222) Accurately ripped
09 [a05474b3] (004/223) Accurately ripped
10 [3fe8bc68] (004/225) Accurately ripped
11 [888b1e98] (004/226) Accurately ripped
12 [2c23abc2] (003/217) Accurately ripped
Offsetted by -1972:
01 [ace95ff0] (020/219) Accurately ripped
02 [1e834bfd] (022/224) Accurately ripped
03 [5b1f5953] (022/224) Accurately ripped
04 [fd7778db] (022/222) Accurately ripped
05 [c3783a64] (022/223) Accurately ripped
06 [ad27d3df] (022/223) Accurately ripped
07 [44d25751] (023/225) Accurately ripped
08 [4ecd85b1] (022/222) Accurately ripped
09 [e72cf52a] (022/223) Accurately ripped
10 [99570474] (023/225) Accurately ripped
11 [b5a56ef2] (023/226) Accurately ripped
12 [c5e82b33] (020/217) Accurately ripped
Offsetted by -1967:
01 [b4fb25d2] (010/219) Accurately ripped
02 [6ac4b6bf] (010/224) Accurately ripped
03 [85092ba5] (010/224) Accurately ripped
04 [9fb76277] (010/222) Accurately ripped
05 [90f868cc] (010/223) Accurately ripped
06 [84f888fe] (010/223) Accurately ripped
07 [72eb76fb] (010/225) Accurately ripped
08 [caffa3f3] (010/222) Accurately ripped
09 [3cdaf7b4] (010/223) Accurately ripped
10 [4aab39bb] (010/225) Accurately ripped
11 [2b3daeee] (010/226) Accurately ripped
12 [16395591] (010/217) Accurately ripped
Offsetted by -12:
01 [e68554ee] (006/219) Accurately ripped
02 [f36b2996] (006/224) Accurately ripped
03 [2c71d114] (006/224) Accurately ripped
04 [6ae937a1] (006/222) Accurately ripped
05 [56073e55] (006/223) Accurately ripped
06 [7d9130ab] (006/223) Accurately ripped
07 [881554e3] (006/225) Accurately ripped
08 [c8befee3] (006/222) Accurately ripped
09 [7f2b6255] (006/223) Accurately ripped
10 [675034b6] (006/225) Accurately ripped
11 [8e8fbda9] (006/226) Accurately ripped
12 [08a1f65d] (006/217) Accurately ripped
Offsetted by -1455:
01 [a43df083] (002/219) Accurately ripped
02 [6f1b772c] (002/224) Accurately ripped
03 [08645c1a] (002/224) Accurately ripped
04 [6304e697] (000/222) No match (V2 was not tested)
05 [fa9ee1fb] (000/223) No match (V2 was not tested)
06 [a7b7a906] (002/223) Accurately ripped
07 [6bad1310] (002/225) Accurately ripped
08 [296080b5] (002/222) Accurately ripped
09 [0b4b6201] (002/223) Accurately ripped
10 [3f3ac801] (002/225) Accurately ripped
11 [a8e9d605] (002/226) Accurately ripped
12 [7f192812] (000/217) No match (V2 was not tested)
Offsetted by 209:
01 [7de857ac] (002/219) Accurately ripped
02 [a5053723] (002/224) Accurately ripped
03 [11775209] (002/224) Accurately ripped
04 [224988c0] (002/222) Accurately ripped
05 [c9848c77] (002/223) Accurately ripped
06 [e6e4e0c6] (002/223) Accurately ripped
07 [b6907da2] (002/225) Accurately ripped
08 [ac09c221] (002/222) Accurately ripped
09 [8a969e55] (002/223) Accurately ripped
10 [f35c58f4] (002/225) Accurately ripped
11 [46050190] (002/226) Accurately ripped
12 [3c726b7a] (000/217) No match (V2 was not tested)

Track Peak [ CRC32 ] [W/O NULL] [ LOG ]
– 100,0 [04171F95] [5ADA1A27] CRC32
01 100,0 [60B8CAD8] [708E31A6]
02 99,9 [33EFB5BA] [6A3E5F9C]
03 100,0 [BD215669] [F8799D3A]
04 99,9 [AD28B5B6] [971F4EFC]
05 100,0 [573B882C] [FB167475]
06 100,0 [D6C9B667] [1D8C7820]
07 96,9 [C8B2A6CA] [FF340461]
08 100,0 [0B073BCA] [500A7239]
09 100,0 [527A64BE] [AAA19274]
10 100,0 [2784A2B3] [EF3F6C4C]
11 99,9 [4C666E00] [64068A85]
12 96,5 [2B07C336] [388DFFE1]

foobar2000 1.2 / Dynamic Range Meter 1.1.1
log date: 2018-03-02 22:36:09

––––––––––––––––––––––––––––––––––––––––
Analyzed: Etta James / Life, Love & The Blues
––––––––––––––––––––––––––––––––––––––––

DR Peak RMS Duration Track
––––––––––––––––––––––––––––––––––––––––
DR9 0.00 dB -10.47 dB 3:29 01-Born Under A Bad Sign
DR9 0.00 dB -11.48 dB 5:56 02-I Want To Ta Ta You, Baby
DR8 0.00 dB -9.54 dB 4:56 03-Here I Am (Come And Take Me)
DR9 -0.01 dB -12.02 dB 5:04 04-Running Out Of Lies
DR9 0.00 dB -10.20 dB 7:02 05-Inner City Blues (Make Me Wanna Holler)
DR9 0.00 dB -10.26 dB 4:09 06-Spoonful
DR10 -0.27 dB -12.52 dB 5:18 07-Life, Love & The Blues
DR9 0.00 dB -10.75 dB 4:25 08-Hoochie Coochie Gal
DR10 0.00 dB -11.57 dB 4:57 09-Cheating In The Next Room
DR9 0.00 dB -10.69 dB 5:21 10-If You Want Me To Stay
DR10 0.00 dB -11.63 dB 4:02 11-The Love You Save May Be Your Own
DR10 -0.30 dB -12.15 dB 4:59 12-I'll Take Care Of You
––––––––––––––––––––––––––––––––––––––––

Number of tracks: 12
Official DR value: DR9

Samplerate: 44100 Hz
Channels: 2
Bits per sample: 16
Bitrate: 895 kbps
Codec: FLAC
================================================================================

Etta James - Life, Love & The Blues (1998)

Etta James - Life, Love & The Blues (1998)