Subcategories

Simon Rattle, Berliner Philharmoniker, Canizares - Europa Konzert from Madrid 2011 [Blu-Ray]

Posted By: Vilboa
Simon Rattle, Berliner Philharmoniker, Canizares - Europa Konzert from Madrid 2011 [Blu-Ray]

Simon Rattle, Berliner Philharmoniker, Cañizares - Europa Konzert from Madrid 2011 [Blu-Ray]
BluRay | BDMV | MPEG-4 AVC Video / 27858 kbps / 1080i / 29,970 fps | 96 min | 27,1 Gb
Audio1: LPCM Audio / 2.0 / 24-bit | Audio2: DTS-HD Master Audio / 5.1 / 48 kHz / 3900 kbps / 24-bit

BluRay-rip | AVC | MKV 1920x1080 / 6215 kbps / 29,97 fps | 96 min | 5,16 Gb
Audio: DTS / 6ch / 48.0 KHz / 24 bits
Classical | EuroArts

For twenty years the Berliner Philharmoniker has celebrated its 1882 founding with a concert at a major European venue, and the 2011 event takes place at the magnificent Teatro Real in Madrid. The renowned orchestra, under the baton of Sir Simon Rattle, performs Joaquín Rodrigo’s beloved Concierto de Aranjuez, Emmanuel Chabrier’s exuberant España, and Sergey Rachmaninov’s dramatic Second Symphony. It is joined for the Concierto by the famous flamenco guitarist Cañizares, whose virtuosity and sensitivity are given full opportunity to shine in this multi-faceted and subtle work.

Cast:
Cañizares, guitar
Berliner Philharmoniker
Conductor - Sir Simon Rattle

Track List:
1. Opening
2. Emmanuel Chabrier: España
Joaquín Rodrigo: Concierto de Aranjuez
3. I. Allegro con spirito
4. II. Adagio
5. III. Allegro gentile
Sergey Rachmaninov: Symphony No. 2 in E minor, Op. 27
6. I. Largo - Allegro moderato
7. II. Allegro molto
8. III. Adagio
9. IV. Allegro vivace
10. Credits


Disc Title: Europakonzert 2011
Disc Size: 29 116 350 389 bytes
Protection: AACS
BD-Java: Yes
Playlist: 00003.MPLS
Size: 25 630 371 840 bytes
Length: 1:36:45.833
Total Bitrate: 35,32 Mbps
Video: MPEG-2 Video / 27858 kbps / 1080i / 29,970 fps / 16:9
Audio: Undetermined / LPCM Audio / 2.0 / 48 kHz / 1536 kbps / 16-bit
Audio: Undetermined / DTS-HD Master Audio / 5.1 / 48 kHz / 3900 kbps / 24-bit (DTS Core: 5.1 / 48 kHz / 1509 kbps / 24-bit)


General
Unique ID : 224784842974136550459408613163672904172 (0xA91BFC6B562E6939B6EBE1CA0B51A1EC)
Complete name : C:\Europakonzert_2011.mkv
Format : Matroska
Format version : Version 2
File size : 5.16 GiB
Duration : 1h 36mn
Overall bit rate : 7 656 Kbps
Movie name : Europakonzert_2011
Encoded date : UTC 2017-08-16 13:57:48
Writing application : DVDFab 9.1.6.8
Writing library : libebml v0.7.8 + libmatroska v0.8.1

Video
ID : 1
Format : AVC
Format/Info : Advanced Video Codec
Format profile : High@L4.1
Format settings, CABAC : Yes
Format settings, ReFrames : 2 frames
Codec ID : V_MPEG4/ISO/AVC
Duration : 1h 36mn
Bit rate : 6 215 Kbps
Width : 1 920 pixels
Height : 1 080 pixels
Display aspect ratio : 16:9
Frame rate mode : Constant
Frame rate : 29.970 fps
Color space : YUV
Chroma subsampling : 4:2:0
Bit depth : 8 bits
Scan type : Progressive
Bits/(Pixel*Frame) : 0.100
Stream size : 4.04 GiB (78%)
Writing library : x264 core 142
Encoding settings : cabac=1 / ref=1 / deblock=1:-1:-1 / analyse=0x3:0 / me=hex / subme=5 / psy=0 / mixed_ref=0 / me_range=16 / chroma_me=1 / trellis=0 / 8x8dct=1 / cqm=0 / deadzone=21,11 / fast_pskip=1 / chroma_qp_offset=0 / threads=8 / lookahead_threads=2 / sliced_threads=0 / nr=0 / decimate=1 / interlaced=0 / bluray_compat=0 / constrained_intra=0 / bframes=2 / b_pyramid=0 / b_adapt=1 / b_bias=0 / direct=1 / weightb=1 / open_gop=0 / weightp=0 / keyint=24 / keyint_min=13 / scenecut=40 / intra_refresh=0 / rc=abr / mbtree=0 / bitrate=6215 / ratetol=1.0 / qcomp=0.60 / qpmin=0 / qpmax=69 / qpstep=4 / ip_ratio=1.40 / pb_ratio=1.30 / aq=1:1.00
Default : Yes
Forced : No
Color primaries : BT.709
Transfer characteristics : BT.709
Matrix coefficients : BT.709
Color range : Limited

Audio
ID : 2
Format : DTS
Format/Info : Digital Theater Systems
Mode : 16
Format settings, Endianness : Big
Codec ID : A_DTS
Duration : 1h 36mn
Bit rate mode : Constant
Bit rate : 1 509 Kbps
Channel(s) : 6 channels
Channel positions : Front: L C R, Side: L R, LFE
Sampling rate : 48.0 KHz
Bit depth : 24 bits
Compression mode : Lossy
Stream size : 1.02 GiB (20%)
Default : Yes
Forced : No

Menu
00:00:00.000 : en:Chapter 01
00:00:59.692 : en:Chapter 02
00:08:07.186 : en:Chapter 03
00:14:31.303 : en:Chapter 04
00:26:43.335 : en:Chapter 05
00:33:39.984 : en:Chapter 06
00:53:13.456 : en:Chapter 07
01:03:33.876 : en:Chapter 08
01:19:16.752 : en:Chapter 09
01:34:22.223 : en:Chapter 10


All screenshots taken from BDRip

Simon Rattle, Berliner Philharmoniker, Canizares - Europa Konzert from Madrid 2011 [Blu-Ray]