Europe - The Final Countdown (1986) {2013, Japanese Blue-Spec CD2}

Posted By: popsakov
Europe - The Final Countdown (1986) {2013, Japanese Blue-Spec CD2}

Europe - The Final Countdown (1986) {2013, Japanese Blue-Spec CD2}
EAC Rip | FLAC (Img) + Cue + Log ~ 460 Mb | MP3 CBR320 ~ 175 Mb
Scans Included (JPG, 600 dpi) | RAR 5% Recovery
Melodic Hard Rock | Epic / Sony Music Japan #SICP 30396

One of the most glorious launches in history, the title track for the thrice-platinum The Final Countdown is so bombastically brilliant, such glorious garbage, that this nuclear hair assault could only spew from the vacuous '80s. But the full-tilt follow-up "Rock the Night" rules also: "You know it ain't easy/Running out of thrills." "Carrie" comes off a consummate butane ballad. Meanwhile, the rest of the disc packs so much power that Swedish superheroes Europe get away with all the processed pretension. In fact, the lofty ambition of "Danger on the Track," "Ninja," and "Cherokee" (each as tasty as its title) combines with heated drive and hot delivery to meld The Final Countdown into a unique portrait of propulsive prog and a worthy addition to any hard rock collection. This is the story; this is the legend told by Teutonic guitars and predictable keyboards ringing pure and hurtling through each and every convention perfectly. The quintet's big-boy Epic inaugural, The Final Countdown deftly combines the Valhalla victory of Europe's heroic debut with the American poodle pomposity that devoured the band. You could live without The Final Countdown, but why?
~ Doug Stone, All Music
Europe - The Final Countdown (1986) {2013, Japanese Blue-Spec CD2}


***************

Europe - The Final Countdown (1986) {2013, Japanese Blue-Spec CD2}

Europe - The Final Countdown (1986) {2013, Japanese Blue-Spec CD2}

Track List:

01. The Final Countdown [5:11]
02. Rock The Night [4:07]
03. Carrie [4:32]
04. Danger On The Track [3:46]
05. Ninja [3:47]
06. Cherokee [4:15]
07. Time Has Come [4:03]
08. Heart Of Stone [3:47]
09. On The Loose [3:10]
10. Love Chaser [3:33]
11. The Final Countdown (Live) (Bonus Track) [5:12]
12. Danger On The Track (Live) (Bonus Track) [4:00]
13. Carrie (Live) (Bonus Track) [4:41]

Personnel:
Joey Tempest – vocals
John Norum – guitars, backing vocals
John Leven – bass guitar
Mic Michaeli – keyboards, backing vocals
Ian Haugland – drums, backing vocals

Exact Audio Copy V1.0 beta 3 from 29. August 2011

EAC extraction logfile from 28. December 2013, 14:11

Europe / The Final Countdown (Japan 2013, Japan BSCD)

Used drive : Optiarc DVD RW AD-7260S Adapter: 1 ID: 1

Read mode : Secure
Utilize accurate stream : Yes
Defeat audio cache : Yes
Make use of C2 pointers : No

Read offset correction : 48
Overread into Lead-In and Lead-Out : No
Fill up missing offset samples with silence : Yes
Delete leading and trailing silent blocks : No
Null samples used in CRC calculations : Yes
Used interface : Native Win32 interface for Win NT & 2000

Used output format : Internal WAV Routines
Sample format : 44.100 Hz; 16 Bit; Stereo


TOC of the extracted CD

Track | Start | Length | Start sector | End sector
––––––––––––––––––––––––––––-
1 | 0:00.00 | 5:10.45 | 0 | 23294
2 | 5:10.45 | 4:07.25 | 23295 | 41844
3 | 9:17.70 | 4:32.15 | 41845 | 62259
4 | 13:50.10 | 3:46.35 | 62260 | 79244
5 | 17:36.45 | 3:47.20 | 79245 | 96289
6 | 21:23.65 | 4:15.07 | 96290 | 115421
7 | 25:38.72 | 4:02.43 | 115422 | 133614
8 | 29:41.40 | 3:47.25 | 133615 | 150664
9 | 33:28.65 | 3:10.00 | 150665 | 164914
10 | 36:38.65 | 3:32.50 | 164915 | 180864
11 | 40:11.40 | 5:12.05 | 180865 | 204269
12 | 45:23.45 | 3:59.65 | 204270 | 222259
13 | 49:23.35 | 4:40.72 | 222260 | 243331


Range status and errors

Selected range

Filename C:\Мои документы\Евгений Академик\Europe - 1986 - The Final Countdown (Japan 2013, Japan BSCD).wav

Peak level 100.0 %
Extraction speed 3.9 X
Range quality 100.0 %
Test CRC 362674D8
Copy CRC 362674D8
Copy OK

No errors occurred


AccurateRip summary

Track 1 cannot be verified as accurate (confidence 3) [33755C45], AccurateRip returned [11943714] (AR v2)
Track 2 cannot be verified as accurate (confidence 3) [8B345DD2], AccurateRip returned [5032E507] (AR v2)
Track 3 cannot be verified as accurate (confidence 3) [30507096], AccurateRip returned [35D4B04B] (AR v2)
Track 4 cannot be verified as accurate (confidence 3) [89DE9DC6], AccurateRip returned [ADAC5BFF] (AR v2)
Track 5 cannot be verified as accurate (confidence 3) [5E3F111E], AccurateRip returned [DA887F3F] (AR v2)
Track 6 cannot be verified as accurate (confidence 3) [3544E6E6], AccurateRip returned [AEDB43BC] (AR v2)
Track 7 cannot be verified as accurate (confidence 3) [61C798BA], AccurateRip returned [B34EEC82] (AR v2)
Track 8 cannot be verified as accurate (confidence 3) [82966841], AccurateRip returned [AAE85141] (AR v2)
Track 9 cannot be verified as accurate (confidence 3) [A6EA4430], AccurateRip returned [B8DA4278] (AR v2)
Track 10 cannot be verified as accurate (confidence 3) [24830251], AccurateRip returned [4EA43312] (AR v2)
Track 11 cannot be verified as accurate (confidence 3) [0B7E0689], AccurateRip returned [139E1660] (AR v2)
Track 12 cannot be verified as accurate (confidence 3) [FAB7136E], AccurateRip returned [1669D5BF] (AR v2)
Track 13 cannot be verified as accurate (confidence 3) [D88C9678], AccurateRip returned [8B52A637] (AR v2)

No tracks could be verified as accurate
You may have a different pressing from the one(s) in the database

End of status report

–– CUETools DB Plugin V2.1.4

[CTDB TOCID: AhL52QfhrkUQWm8R0BMQiu.wGX0-] found
Submit result: AhL52QfhrkUQWm8R0BMQiu.wGX0- has been submitted
Track | CTDB Status
1 | (0/7) No match
2 | (0/7) No match
3 | (0/7) No match
4 | (0/7) No match
5 | (0/7) No match
6 | (0/7) No match
7 | (0/7) No match
8 | (0/7) No match
9 | (0/7) No match
10 | (0/7) No match
11 | (0/7) No match
12 | (0/7) No match
13 | (0/7) No match


==== Log checksum 1CCFA3A44E42C7E9A3D3E0AF0FA0C6C01FA76E793D08D2137226725B54EEB35C ====

foobar2000 1.2.6 / Dynamic Range Meter 1.1.1
log date: 2017-04-17 20:25:38

––––––––––––––––––––––––––––––––––––––––
Analyzed: Europe / The Final Countdown (Japan 2013, Japan BSCD)
––––––––––––––––––––––––––––––––––––––––

DR Peak RMS Duration Track
––––––––––––––––––––––––––––––––––––––––
DR7 0.00 dB -8.58 dB 5:11 01-The Final Countdown
DR7 0.00 dB -7.95 dB 4:07 02-Rock The Night
DR7 0.00 dB -8.76 dB 4:32 03-Carrie
DR7 0.00 dB -7.60 dB 3:46 04-Danger On The Track
DR7 0.00 dB -7.74 dB 3:47 05-Ninja
DR7 0.00 dB -8.17 dB 4:15 06-Cherokee
DR6 0.00 dB -8.27 dB 4:03 07-Time Has Come
DR7 0.00 dB -8.09 dB 3:47 08-Heart Of Stone
DR7 0.00 dB -8.06 dB 3:10 09-On The Loose
DR7 0.00 dB -7.80 dB 3:33 10-Love Chaser
DR7 0.00 dB -7.49 dB 5:12 11-The Final Countdown (Live) (Bonus Track)
DR7 0.00 dB -7.73 dB 4:00 12-Danger On The Track (Live) (Bonus Track)
DR7 0.00 dB -8.66 dB 4:41 13-Carrie (Live) (Bonus Track)
––––––––––––––––––––––––––––––––––––––––

Number of tracks: 13
Official DR value: DR7

Samplerate: 44100 Hz
Channels: 2
Bits per sample: 16
Bitrate: 1023 kbps
Codec: FLAC
================================================================================

[CUETools log; Date: 17.04.2017 20:25:52; Version: 2.1.5]
[CTDB TOCID: AhL52QfhrkUQWm8R0BMQiu.wGX0-] found.
Track | CTDB Status
1 | (13/40) Accurately ripped
2 | (13/40) Accurately ripped
3 | (13/40) Accurately ripped
4 | (13/40) Accurately ripped
5 | (13/40) Accurately ripped
6 | (13/40) Accurately ripped
7 | (13/40) Accurately ripped
8 | (13/40) Accurately ripped
9 | (13/40) Accurately ripped
10 | (13/40) Accurately ripped
11 | (13/40) Accurately ripped
12 | (13/40) Accurately ripped
13 | (13/40) Accurately ripped
[AccurateRip ID: 001a3807-01039ca3-9a0cac0d] found.
Track [ CRC | V2 ] Status
01 [0a62240e|33755c45] (00+07/23) Accurately ripped
02 [461e57c7|8b345dd2] (00+07/23) Accurately ripped
03 [af9da3bc|30507096] (00+07/23) Accurately ripped
04 [f1487e2f|89de9dc6] (00+07/23) Accurately ripped
05 [0c4f15e0|5e3f111e] (00+07/23) Accurately ripped
06 [152feb88|3544e6e6] (00+07/23) Accurately ripped
07 [dd16e3c4|61c798ba] (00+07/23) Accurately ripped
08 [c391f567|82966841] (00+07/23) Accurately ripped
09 [cbd99244|a6ea4430] (00+07/23) Accurately ripped
10 [719c7488|24830251] (00+07/23) Accurately ripped
11 [a529b530|0b7e0689] (00+07/22) Accurately ripped
12 [147350b5|fab7136e] (00+07/22) Accurately ripped
13 [2e10f82c|d88c9678] (00+07/22) Accurately ripped

Track Peak [ CRC32 ] [W/O NULL] [ LOG ]
– 100,0 [362674D8] [A75835A8] CRC32
01 100,0 [841A4290] [64C60AE1]
02 100,0 [C58A0BBF] [EDE1B124]
03 100,0 [C56A8341] [C1629F42]
04 100,0 [F52623DF] [D25A14CD]
05 100,0 [6BE629D8] [2B54C894]
06 100,0 [27EE5349] [71840B46]
07 100,0 [8D0FC850] [67A48333]
08 100,0 [3D7247AC] [04C308DC]
09 100,0 [DE2FC459] [4286B351]
10 100,0 [78BAC6C7] [B341BF44]
11 100,0 [A2CE0C0F] [74632B48]
12 100,0 [D0EBD15F] [DD82072E]
13 100,0 [4DB1C54F] [4C9B77CE]

Europe - The Final Countdown (1986) {2013, Japanese Blue-Spec CD2}

All thanks go to Евгений Академик

> Europe in my blog <