Subcategories

Eurythmics - Be Yourself Tonight (1985) Non-Remastered [Re-Up]

Posted By: Designol
Eurythmics - Be Yourself Tonight (1985) Non-Remastered [Re-Up]

Eurythmics - Be Yourself Tonight (1985)
EAC | FLAC | Image (Cue&Log) ~ 325 Mb (incl 5%) | Mp3 (CBR320) ~ 127 Mb (incl 5%) | Scans included
Genre: New Wave, Pop Rock, Dance Rock | Label: RCA | # PD 70711 | Time: 00:43:38

On Be Yourself Tonight, Eurythmics' most commercially successful and hit-laden album, the duo meticulously blended the new wave electronic elements that dominated their previous sets with the harder straight-edged rock and soul that would dominate later sets to come up with a near-perfect pop album. This disc scored no less than four hit singles and kept them a mainstay on MTV's play lists during the channel's heyday. Fusing pop, soul, rock, electronic beats, and even gospel, this is arguably the duo's finest moment. The first hit, "Would I Lie to You," is a straight-forward rocker, complete with great guitar licks, a soulful horn section, and Annie Lennox sounding as vicious and vivacious as ever. The second single, which was a huge chart topper in Europe, "There Must Be an Angel," is nothing short of shimmering beauty, with Lennox providing truly angelic vocals and Stevie Wonder lending an enchanting harmonica solo. Aretha Franklin lends her powerhouse pipes for the duet "Sisters Are Doin' It for Themselves," which has gone on to become an immortal feminist anthem. From the soulful electronic beats (a rarity) in "It's Alright (Baby's Coming Back)" to the beauty of the Elvis Costello duet "Adrian" to the pain and longing of the sorrowful rocker "Better to Have Lost in Love (Than Never to Have Loved at All)," this album runs a wide array of musical styles, each song standing tall on its own two feet. This disc is, without a doubt, one of the best rock/pop albums from the 1980s and one of the grandest, most creative albums delivered by the ever-appealing and innovative duo of Annie Lennox and Dave Stewart. A true classic.

Review by Jose F. Promis, Allmusic.com

Eurythmics - Be Yourself Tonight (1985) Non-Remastered [Re-Up]



Tracklist:

01. Would I Lie To You? (04:29)
02. There Must Be An Angel (Playing With My Heart) (05:24)
03. I Love You Like A Ball And Chain (04:05)
04. Sisters Are Doin' It For Themselves (05:58)
05. Conditioned Soul (04:28)
06. Adrian (04:34)
07. It's Alright - (Baby's Coming Back) (03:49)
08. Here Comes That Sinking Feeling (05:40)
09. Better To Have Lost In Love (Than Never To Have Loved At All) (05:07)


Exact Audio Copy V1.0 beta 3 from 29. August 2011

EAC extraction logfile from 12. July 2013, 19:16

Eurythmics / Be Yourself Tonight

Used drive : TSSTcorpCD/DVDW TS-L632D Adapter: 0 ID: 0

Read mode : Secure
Utilize accurate stream : Yes
Defeat audio cache : Yes
Make use of C2 pointers : No

Read offset correction : 6
Overread into Lead-In and Lead-Out : No
Fill up missing offset samples with silence : Yes
Delete leading and trailing silent blocks : No
Null samples used in CRC calculations : Yes
Used interface : Native Win32 interface for Win NT & 2000

Used output format : User Defined Encoder
Selected bitrate : 896 kBit/s
Quality : High
Add ID3 tag : No
Command line compressor : C:\Program Files (x86)\Exact Audio Copy\Flac\flac.exe
Additional command line options : -8 -V -T "Date=%year%" -T "Genre=%genre%" -T "COMMENT=ripped by sewerok®" %source%


TOC of the extracted CD

Track | Start | Length | Start sector | End sector
––––––––––––––––––––––––––––-
1 | 0:00.32 | 4:29.40 | 32 | 20246
2 | 4:29.72 | 5:24.45 | 20247 | 44591
3 | 9:54.42 | 4:05.18 | 44592 | 62984
4 | 13:59.60 | 5:58.57 | 62985 | 89891
5 | 19:58.42 | 4:28.48 | 89892 | 110039
6 | 24:27.15 | 4:34.52 | 110040 | 130641
7 | 29:01.67 | 3:48.70 | 130642 | 147811
8 | 32:50.62 | 5:40.20 | 147812 | 173331
9 | 38:31.07 | 5:07.10 | 173332 | 196366


Range status and errors

Selected range

Filename E:\Eurythmics - Be Yourself Tonight [1985](RCA PD 70711 Germany)\Eurythmics - Be Yourself Tonight.wav

Peak level 88.8 %
Extraction speed 1.7 X
Range quality 100.0 %
Test CRC DF44F067
Copy CRC DF44F067
Copy OK

No errors occurred


AccurateRip summary

Track 1 accurately ripped (confidence 16) [381EB802] (AR v2)
Track 2 accurately ripped (confidence 16) [D306EC27] (AR v2)
Track 3 accurately ripped (confidence 16) [AA0AC495] (AR v2)
Track 4 accurately ripped (confidence 16) [0B7FBBBD] (AR v2)
Track 5 accurately ripped (confidence 16) [6785EDC5] (AR v2)
Track 6 accurately ripped (confidence 16) [A393F1A4] (AR v2)
Track 7 accurately ripped (confidence 16) [BFC06963] (AR v2)
Track 8 accurately ripped (confidence 16) [26136048] (AR v2)
Track 9 accurately ripped (confidence 16) [822D84B0] (AR v2)

All tracks accurately ripped

End of status report

==== Log checksum 9765E44EACC7AAD8C8086F227ED164169A0D090C65B9A4805868B8AE306B8BD6 ====

foobar2000 1.2 / Dynamic Range Meter 1.1.1
log date: 2014-01-16 17:51:02

––––––––––––––––––––––––––––––––––––––––
Analyzed: Eurythmics / Be Yourself Tonight
––––––––––––––––––––––––––––––––––––––––

DR Peak RMS Duration Track
––––––––––––––––––––––––––––––––––––––––
DR12 -1.32 dB -14.59 dB 4:30 01-Would I Lie To You?
DR12 -2.66 dB -16.15 dB 5:25 02-There Must Be An Angel (Playing With My Heart)
DR12 -1.87 dB -16.42 dB 4:05 03-I Love You Like A Ball And Chain
DR13 -1.03 dB -16.56 dB 5:59 04-Sisters Are Doin' It For Themselves
DR13 -2.46 dB -18.42 dB 4:29 05-Conditioned Soul
DR12 -3.90 dB -17.81 dB 4:35 06-Adrian
DR12 -3.34 dB -17.62 dB 3:49 07-It's Alright - (Baby's Coming Back)
DR12 -2.36 dB -16.89 dB 5:40 08-Here Comes That Sinking Feeling
DR12 -2.81 dB -16.31 dB 5:07 09-Better To Have Lost In Love (Than Never To Have Loved At All)
––––––––––––––––––––––––––––––––––––––––

Number of tracks: 9
Official DR value: DR12

Samplerate: 44100 Hz
Channels: 2
Bits per sample: 16
Bitrate: 870 kbps
Codec: FLAC
================================================================================

Eurythmics - Be Yourself Tonight (1985) Non-Remastered [Re-Up]

Eurythmics - Be Yourself Tonight (1985) Non-Remastered [Re-Up]

NitroFlare:

Ertmcs85.flac.rar

Ertmcs85.mp3.rar

Password: designol