Subcategories

Exhorder: Slaughter In The Vatican '90 & The Law `92 (2008) [Remastered]

Posted By: v3122
Exhorder: Slaughter In The Vatican '90 & The Law `92 (2008) [Remastered]

Exhorder: Slaughter In The Vatican '90 & The Law `92 (2008)
EAC | Flac(Image) + Cue + Log & MP3 CBR 320Kbps
2CD | Metal Mind Productions | ~ 607 or 194 Mb | Scans(jpg) -> 223 Mb
Thrash Metal | Remastered

Formed in the late '80s out of a common interest in speed and doom metal, Exhorder helped shape the "Louisiana sound," a common sound shared between many metal bands from the state. By crafting chugging, tight riffs with a rigid structure, Exhorder made quite the local impression with 1990's Slaughter in the Vatican. Although dismissed by some because of the title and front cover, the album paved the way for Pantera's Cowboys From Hell and helped turn the thrash genre into a new direction. 1992's The Law did not have the same effect, and the band eventually split because of the direction vocalist Kyle Thomas wanted to take the music. He went on to form Floodgate with his brother, while guitarist Jay Ceravolo formed Fall From Grace.

by Bradley Torreano, allmusic
Exhorder: Slaughter In The Vatican '90 & The Law `92 (2008) :

Exhorder: Slaughter In The Vatican '90 & The Law `92 (2008) [Remastered]

Tracklist CD01 - 1990 - Slaughter In The Vatican:
Metal Mind Productions, MASS CD 1177 DG

1. Death In Vain
2. Homicide
3. Desecrator
4. Exhorder
5. The Tragic Period
6. Legions Of Death
7. Anal Lust
8. Slaughter In The Vatican

Exact Audio Copy V1.0 beta 3 from 29. August 2011

EAC extraction logfile from 26. November 2012, 22:56

Exhorder / Slaughter In The Vatican

Used drive : Optiarc DVD-ROM DDU1675S Adapter: 3 ID: 0

Read mode : Secure
Utilize accurate stream : Yes
Defeat audio cache : Yes
Make use of C2 pointers : No

Read offset correction : 6
Overread into Lead-In and Lead-Out : No
Fill up missing offset samples with silence : Yes
Delete leading and trailing silent blocks : No
Null samples used in CRC calculations : Yes
Used interface : Native Win32 interface for Win NT & 2000

Used output format : User Defined Encoder
Selected bitrate : 1024 kBit/s
Quality : High
Add ID3 tag : No
Command line compressor : C:\Program Files (x86)\Exact Audio Copy\Flac\flac.exe
Additional command line options : -V -8 -T "Date=%year%" -T "Genre=%genre%" %source%


TOC of the extracted CD

Track | Start | Length | Start sector | End sector
––––––––––––––––––––––––––––-
1 | 0:00.00 | 5:34.44 | 0 | 25093
2 | 5:34.44 | 3:14.61 | 25094 | 39704
3 | 8:49.30 | 6:08.62 | 39705 | 67366
4 | 14:58.17 | 5:12.54 | 67367 | 90820
5 | 20:10.71 | 7:08.06 | 90821 | 122926
6 | 27:19.02 | 4:33.14 | 122927 | 143415
7 | 31:52.16 | 2:35.49 | 143416 | 155089
8 | 34:27.65 | 7:18.28 | 155090 | 187967


Range status and errors

Selected range

Filename F:\Torrent\# MY\Exhorder (1990-1992, Metal Mind Re-issue)\1990 - Slaughter In The Vatican\Exhorder - Slaughter In The Vatican.wav

Peak level 98.8 %
Extraction speed 7.6 X
Range quality 99.9 %
Test CRC CEF12773
Copy CRC CEF12773
Copy OK

No errors occurred


AccurateRip summary

Track 1 accurately ripped (confidence 5) [CD024E12] (AR v1)
Track 2 accurately ripped (confidence 5) [B526ABDD] (AR v1)
Track 3 accurately ripped (confidence 5) [99C7DBB2] (AR v1)
Track 4 accurately ripped (confidence 5) [A2A8E1DA] (AR v1)
Track 5 accurately ripped (confidence 3) [909E68C5] (AR v1)
Track 6 accurately ripped (confidence 5) [E8C5C374] (AR v1)
Track 7 accurately ripped (confidence 5) [F3F8B774] (AR v1)
Track 8 accurately ripped (confidence 5) [D4BCC6A5] (AR v1)

All tracks accurately ripped

End of status report

==== Log checksum 51460838D5387D6B8AA84D215671A42D37A2BF8C11422924BDB26E5B3C6F2BE8 ====


[CUETools log; Date: 23.11.2017 6:00:05; Version: 2.1.5]
[CTDB TOCID: Y38uTSpW3QHQvSsoc2p0iVB6eRI-] found.
Track | CTDB Status
1 | (6/6) Accurately ripped
2 | (6/6) Accurately ripped
3 | (6/6) Accurately ripped
4 | (6/6) Accurately ripped
5 | (6/6) Accurately ripped
6 | (6/6) Accurately ripped
7 | (6/6) Accurately ripped
8 | (6/6) Accurately ripped
[AccurateRip ID: 000cb384-0054f13f-5209ca08] found.
Track [ CRC | V2 ] Status
01 [cd024e12|627434c8] (05+05/10) Accurately ripped
02 [b526abdd|cf2a12b2] (05+05/10) Accurately ripped
03 [99c7dbb2|6432908e] (05+05/10) Accurately ripped
04 [a2a8e1da|bfdea77f] (05+05/10) Accurately ripped
05 [909e68c5|c49ce5ec] (03+05/08) Accurately ripped
06 [e8c5c374|62a1df67] (05+05/10) Accurately ripped
07 [f3f8b774|f4421e11] (05+05/10) Accurately ripped
08 [d4bcc6a5|a6afc4ac] (05+05/10) Accurately ripped

Track Peak [ CRC32 ] [W/O NULL] [ LOG ]
– 98,8 [CEF12773] [7A4F15C4] CRC32
01 98,5 [259B9D4F] [A58172CB]
02 98,5 [6FDFD599] [A2C09872]
03 98,5 [9855D15F] [224D858B]
04 98,5 [371544D4] [715E07AB]
05 98,5 [6B986A9F] [0784C885]
06 98,5 [80570715] [E7F66943]
07 98,5 [EAAB1190] [DD13F8B9]
08 98,8 [321370C6] [D0603D18]


Exhorder: Slaughter In The Vatican '90 & The Law `92 (2008) [Remastered]

Tracklist CD02 - 1992 - The Law:
Metal Mind Productions, MASS CD 1176 DG

1. Soul Search Me
2. Unforgiven
3. I Am The Cross
4. Un-Born Again
5. Into The Void
6. The Truth
7. The Law
8. Incontinence
9. (Cadence Of) The Dirge

Exact Audio Copy V1.0 beta 3 from 29. August 2011

EAC extraction logfile from 26. November 2012, 23:18

Exhorder / The Law

Used drive : Optiarc DVD-ROM DDU1675S Adapter: 3 ID: 0

Read mode : Secure
Utilize accurate stream : Yes
Defeat audio cache : Yes
Make use of C2 pointers : No

Read offset correction : 6
Overread into Lead-In and Lead-Out : No
Fill up missing offset samples with silence : Yes
Delete leading and trailing silent blocks : No
Null samples used in CRC calculations : Yes
Used interface : Native Win32 interface for Win NT & 2000

Used output format : User Defined Encoder
Selected bitrate : 1024 kBit/s
Quality : High
Add ID3 tag : No
Command line compressor : C:\Program Files (x86)\Exact Audio Copy\Flac\flac.exe
Additional command line options : -V -8 -T "Date=%year%" -T "Genre=%genre%" %source%


TOC of the extracted CD

Track | Start | Length | Start sector | End sector
––––––––––––––––––––––––––––-
1 | 0:00.00 | 4:50.06 | 0 | 21755
2 | 4:50.06 | 3:53.14 | 21756 | 39244
3 | 8:43.20 | 4:33.07 | 39245 | 59726
4 | 13:16.27 | 2:49.29 | 59727 | 72430
5 | 16:05.56 | 6:06.69 | 72431 | 99949
6 | 22:12.50 | 3:25.49 | 99950 | 115373
7 | 25:38.24 | 4:48.51 | 115374 | 137024
8 | 30:27.00 | 3:45.24 | 137025 | 153923
9 | 34:12.24 | 4:31.43 | 153924 | 174291


Range status and errors

Selected range

Filename F:\Torrent\# MY\Exhorder (1990-1992, Metal Mind Re-issue)\1992 - The Law\Exhorder - The Law.wav

Peak level 98.5 %
Extraction speed 4.1 X
Range quality 100.0 %
Test CRC BFC9F0CE
Copy CRC BFC9F0CE
Copy OK

No errors occurred


AccurateRip summary

Track 1 accurately ripped (confidence 1) [482DFF97] (AR v1)
Track 2 accurately ripped (confidence 1) [E31B280D] (AR v1)
Track 3 accurately ripped (confidence 1) [063932FE] (AR v1)
Track 4 accurately ripped (confidence 1) [094948E0] (AR v1)
Track 5 accurately ripped (confidence 1) [DC9D612A] (AR v1)
Track 6 accurately ripped (confidence 1) [191C5ED1] (AR v1)
Track 7 accurately ripped (confidence 1) [B9C5E019] (AR v1)
Track 8 accurately ripped (confidence 1) [9369606D] (AR v1)
Track 9 accurately ripped (confidence 1) [CE093974] (AR v1)

All tracks accurately ripped

End of status report

==== Log checksum D3E1504F6C27C456174EFADDBB7120BE0A387A5C5D036843FCEF57FE96C4492B ====


[CUETools log; Date: 23.11.2017 6:00:27; Version: 2.1.5]
[CTDB TOCID: ZGWRjYT_KyecuU8N7QTWZsniwF0-] found.
Track | CTDB Status
1 | (5/5) Accurately ripped
2 | (5/5) Accurately ripped
3 | (5/5) Accurately ripped
4 | (5/5) Accurately ripped
5 | (5/5) Accurately ripped
6 | (5/5) Accurately ripped
7 | (5/5) Accurately ripped
8 | (5/5) Accurately ripped
9 | (5/5) Accurately ripped
[AccurateRip ID: 000d54fc-006190d1-7d091309] found.
Track [ CRC | V2 ] Status
01 [482dff97|7f12eb5b] (1+1/3) Accurately ripped
02 [e31b280d|b254e90f] (0+2/2) Accurately ripped
03 [063932fe|cee81a23] (0+2/2) Accurately ripped
04 [094948e0|51ff2912] (0+2/2) Accurately ripped
05 [dc9d612a|7c07c3ee] (0+2/2) Accurately ripped
06 [191c5ed1|edf47afd] (0+2/2) Accurately ripped
07 [b9c5e019|050256a6] (0+2/2) Accurately ripped
08 [9369606d|6217cc58] (0+2/2) Accurately ripped
09 [ce093974|267371cf] (0+2/2) Accurately ripped

Track Peak [ CRC32 ] [W/O NULL] [ LOG ]
– 98,5 [BFC9F0CE] [44CADDA5] CRC32
01 98,5 [3D2EA228] [5B6C05DF]
02 98,5 [2DED8D4C] [7013EAFE]
03 98,5 [5771085C] [DF147D88]
04 98,5 [BCEB74F6] [D8C53A2D]
05 98,5 [A19FF409] [36AD925F]
06 98,5 [D810F815] [5001709A]
07 98,5 [5F3E0597] [41EE44C0]
08 98,5 [53539615] [03C65612]
09 98,5 [9975ADDE] [A3D0519A]


All thanks go to Ginger Devil

Thrash Metal or Thrash Metal in my Blog

Download Exhorder: Slaughter In The Vatican '90 & The Law `92 (2008) :