Subcategories

Exhorder: Slaughter In The Vatican '90 & The Law `92

Posted By: v3122
Exhorder: Slaughter In The Vatican '90 & The Law `92

Exhorder: Slaughter In The Vatican '90 & The Law `92
EAC | Flac(Image) + Cue + Log & MP3 CBR 320Kbps
2CD | Roadracer Records | ~ 578 or 194 Mb | Scans(jpg) -> 40 Mb
Thrash Metal | Non Remastered

Formed in the late '80s out of a common interest in speed and doom metal, Exhorder helped shape the "Louisiana sound," a common sound shared between many metal bands from the state. By crafting chugging, tight riffs with a rigid structure, Exhorder made quite the local impression with 1990's Slaughter in the Vatican. Although dismissed by some because of the title and front cover, the album paved the way for Pantera's Cowboys From Hell and helped turn the thrash genre into a new direction. 1992's The Law did not have the same effect, and the band eventually split because of the direction vocalist Kyle Thomas wanted to take the music. He went on to form Floodgate with his brother, while guitarist Jay Ceravolo formed Fall From Grace.

by Bradley Torreano, allmusic

Exhorder: Slaughter In The Vatican '90 & The Law `92:

Exhorder: Slaughter In The Vatican '90 & The Law `92

Tracklist CD1 - 1990 - Slaughter In The Vatican:
Roadracer Records, RO 9363-2, Germany

1. Death In Vain
2. Homicide
3. Desecrator
4. Exhorder
5. The Tragic Period
6. Legions Of Death
7. Anal Lust
8. Slaughter In The Vatican

Exact Audio Copy V1.3 from 2. September 2016

EAC extraction logfile from 17. November 2017, 9:24

Exhorder / Slaughter In The Vatican (RO 9363-2)

Used drive : ASUS DRW-24B1ST Adapter: 1 ID: 1

Read mode : Secure
Utilize accurate stream : Yes
Defeat audio cache : Yes
Make use of C2 pointers : No

Read offset correction : 6
Overread into Lead-In and Lead-Out : No
Fill up missing offset samples with silence : Yes
Delete leading and trailing silent blocks : No
Null samples used in CRC calculations : Yes
Used interface : Native Win32 interface for Win NT & 2000

Used output format : User Defined Encoder
Selected bitrate : 1024 kBit/s
Quality : High
Add ID3 tag : No
Command line compressor : C:\Program Files (x86)\Exact Audio Copy\Flac\flac.exe
Additional command line options : -V -8 -T "Genre=%genre%" -T "Artist=%artist%" -T "Title=%title%" -T "Album=%albumtitle%" -T "Date=%year%" -T "Tracknumber=%tracknr%" -T "Comment=%comment%" %source%


TOC of the extracted CD

Track | Start | Length | Start sector | End sector
––––––––––––––––––––––––––––-
1 | 0:00.33 | 5:34.45 | 33 | 25127
2 | 5:35.03 | 3:14.62 | 25128 | 39739
3 | 8:49.65 | 6:08.63 | 39740 | 67402
4 | 14:58.53 | 5:12.55 | 67403 | 90857
5 | 20:11.33 | 7:08.07 | 90858 | 122964
6 | 27:19.40 | 4:33.15 | 122965 | 143454
7 | 31:52.55 | 2:35.50 | 143455 | 155129
8 | 34:28.30 | 7:18.28 | 155130 | 188007


Range status and errors

Selected range

Filename E:\Torrent\Ginger Devil\Exhorder\1990 - Slaughter In The Vatican (RO 9363-2)\Exhorder - Slaughter In The Vatican (RO 9363-2).wav

Peak level 97.7 %
Extraction speed 5.1 X
Range quality 100.0 %
Test CRC 0638A728
Copy CRC 0638A728
Copy OK

No errors occurred


AccurateRip summary

Track 1 accurately ripped (confidence 5) [F1F5A89F] (AR v2)
Track 2 accurately ripped (confidence 5) [A26EBF83] (AR v2)
Track 3 accurately ripped (confidence 5) [606CD413] (AR v2)
Track 4 accurately ripped (confidence 5) [8BE0B6CB] (AR v2)
Track 5 accurately ripped (confidence 5) [CD6AA0EB] (AR v2)
Track 6 accurately ripped (confidence 5) [AC715010] (AR v2)
Track 7 accurately ripped (confidence 5) [B7D11401] (AR v2)
Track 8 accurately ripped (confidence 5) [AB8BE808] (AR v2)

All tracks accurately ripped

End of status report

–– CUETools DB Plugin V2.1.6

[CTDB TOCID: YnSBAOGdNHDle.4LsnkeHLjOLy4-] found
Submit result: already submitted
Track | CTDB Status
1 | (6/6) Accurately ripped
2 | (5/6) Accurately ripped, or (1/6) differs in 1151 samples @00:00:29-00:00:31
3 | (5/6) Accurately ripped, or (1/6) differs in 1113 samples @00:00:29-00:00:31
4 | (5/6) Accurately ripped, or (1/6) differs in 1699 samples @00:00:29-00:00:31
5 | (5/6) Accurately ripped, or (1/6) differs in 1147 samples @00:00:29-00:00:31
6 | (5/6) Accurately ripped, or (1/6) differs in 1211 samples @00:00:29-00:00:31
7 | (5/6) Accurately ripped, or (1/6) differs in 1104 samples @00:00:29-00:00:31
8 | (5/6) Accurately ripped, or (1/6) differs in 1042 samples @00:00:29-00:00:31


==== Log checksum C87CDAFA67B222BE97083D6EE1CB0966B8B6658C32E5815FE47BDF89B813D98B ====


[CUETools log; Date: 18.11.2017 17:52:50; Version: 2.1.5]
Pregap length 00:00:33.
[CTDB TOCID: YnSBAOGdNHDle.4LsnkeHLjOLy4-] found.
Track | CTDB Status
1 | (6/6) Accurately ripped
2 | (5/6) Accurately ripped, or (1/6) differs in 1151 samples @00:00:29-00:00:31
3 | (5/6) Accurately ripped, or (1/6) differs in 1113 samples @00:00:29-00:00:31
4 | (5/6) Accurately ripped, or (1/6) differs in 1699 samples @00:00:29-00:00:31
5 | (5/6) Accurately ripped, or (1/6) differs in 1147 samples @00:00:29-00:00:31
6 | (5/6) Accurately ripped, or (1/6) differs in 1211 samples @00:00:29-00:00:31
7 | (5/6) Accurately ripped, or (1/6) differs in 1104 samples @00:00:29-00:00:31
8 | (5/6) Accurately ripped, or (1/6) differs in 1042 samples @00:00:29-00:00:31
[AccurateRip ID: 000cb4d0-0054f7f2-4c09ca08] found.
Track [ CRC | V2 ] Status
01 [3cfd418d|f1f5a89f] (3+5/8) Accurately ripped
02 [31201ffc|a26ebf83] (4+5/9) Accurately ripped
03 [15c981a4|606cd413] (4+5/9) Accurately ripped
04 [8a356b79|8be0b6cb] (4+5/9) Accurately ripped
05 [f798e7a8|cd6aa0eb] (3+5/8) Accurately ripped
06 [c2c06ec4|ac715010] (4+5/9) Accurately ripped
07 [252371f4|b7d11401] (3+5/8) Accurately ripped
08 [a3a02f6e|ab8be808] (4+5/9) Accurately ripped

Track Peak [ CRC32 ] [W/O NULL] [ LOG ]
– 97,7 [0638A728] [8568425B] CRC32
01 97,7 [AC096E8F] [AC984A27]
02 97,7 [F62EF79F] [6E5821FD]
03 97,7 [743025A5] [90861E7E]
04 95,4 [984EAC54] [68BC71B7]
05 97,7 [FF6FBD26] [5659D3C4]
06 97,7 [ADD75A07] [835943A5]
07 97,0 [F44DBE0C] [278C1762]
08 97,7 [CAC55685] [48D6DBDD]


Exhorder: Slaughter In The Vatican '90 & The Law `92

Tracklist CD2 - 1992 - The Law:
Roadracer Records, RO 9234-2

1. Soul Search Me
2. Unforgiven
3. I Am The Cross
4. Un-Born Again
5. Into The Void
6. The Truth
7. The Law
8. Incontinence
9. (Cadence Of) The Dirge

Exact Audio Copy V1.3 from 2. September 2016

EAC extraction logfile from 17. November 2017, 9:47

Exhorder / The Law (RO 9234-2)

Used drive : ASUS DRW-24B1ST Adapter: 1 ID: 1

Read mode : Secure
Utilize accurate stream : Yes
Defeat audio cache : Yes
Make use of C2 pointers : No

Read offset correction : 6
Overread into Lead-In and Lead-Out : No
Fill up missing offset samples with silence : Yes
Delete leading and trailing silent blocks : No
Null samples used in CRC calculations : Yes
Used interface : Native Win32 interface for Win NT & 2000

Used output format : User Defined Encoder
Selected bitrate : 1024 kBit/s
Quality : High
Add ID3 tag : No
Command line compressor : C:\Program Files (x86)\Exact Audio Copy\Flac\flac.exe
Additional command line options : -V -8 -T "Genre=%genre%" -T "Artist=%artist%" -T "Title=%title%" -T "Album=%albumtitle%" -T "Date=%year%" -T "Tracknumber=%tracknr%" -T "Comment=%comment%" %source%


TOC of the extracted CD

Track | Start | Length | Start sector | End sector
––––––––––––––––––––––––––––-
1 | 0:00.33 | 4:51.07 | 33 | 21864
2 | 4:51.40 | 3:53.15 | 21865 | 39354
3 | 8:44.55 | 4:33.08 | 39355 | 59837
4 | 13:17.63 | 2:49.30 | 59838 | 72542
5 | 16:07.18 | 6:06.70 | 72543 | 100062
6 | 22:14.13 | 3:25.50 | 100063 | 115487
7 | 25:39.63 | 4:48.52 | 115488 | 137139
8 | 30:28.40 | 3:45.25 | 137140 | 154039
9 | 34:13.65 | 4:31.43 | 154040 | 174407


Range status and errors

Selected range

Filename E:\Torrent\Ginger Devil\Exhorder\1992 - The Law (RO 9234-2)\Exhorder - The Law (RO 9234-2).wav

Peak level 99.9 %
Extraction speed 2.7 X
Range quality 100.0 %
Test CRC DFBC1528
Copy CRC DFBC1528
Copy OK

No errors occurred


AccurateRip summary

Track 1 accurately ripped (confidence 12) [93D4DBDB] (AR v2)
Track 2 accurately ripped (confidence 12) [81F154BF] (AR v2)
Track 3 accurately ripped (confidence 12) [6EA62825] (AR v2)
Track 4 accurately ripped (confidence 12) [26195940] (AR v2)
Track 5 accurately ripped (confidence 12) [A63CD10F] (AR v2)
Track 6 accurately ripped (confidence 12) [B5503F94] (AR v2)
Track 7 accurately ripped (confidence 12) [671FAB8B] (AR v2)
Track 8 accurately ripped (confidence 12) [2D23AC6B] (AR v2)
Track 9 accurately ripped (confidence 13) [3BCEC357] (AR v2)

All tracks accurately ripped

End of status report

–– CUETools DB Plugin V2.1.6

[CTDB TOCID: IGDftzS2XRKh9B5W9rE4CCnS0ic-] found
Submit result: already submitted
Track | CTDB Status
1 | (8/8) Accurately ripped
2 | (8/8) Accurately ripped
3 | (8/8) Accurately ripped
4 | (8/8) Accurately ripped
5 | (8/8) Accurately ripped
6 | (8/8) Accurately ripped
7 | (8/8) Accurately ripped
8 | (8/8) Accurately ripped
9 | (7/8) Accurately ripped


==== Log checksum 69AFF31D0DEEC4445F22ECC58ADE7A1A6E712FF1DDC99E25F19E5735946A6912 ====


[CUETools log; Date: 18.11.2017 17:53:15; Version: 2.1.5]
Pregap length 00:00:33.
[CTDB TOCID: IGDftzS2XRKh9B5W9rE4CCnS0ic-] found.
Track | CTDB Status
1 | (8/8) Accurately ripped
2 | (8/8) Accurately ripped
3 | (8/8) Accurately ripped
4 | (8/8) Accurately ripped
5 | (8/8) Accurately ripped
6 | (8/8) Accurately ripped
7 | (8/8) Accurately ripped
8 | (8/8) Accurately ripped
9 | (7/8) Accurately ripped
[AccurateRip ID: 000d5915-0061a8f9-7e091509] found.
Track [ CRC | V2 ] Status
01 [78b4d798|93d4dbdb] (05+12/17) Accurately ripped
02 [48e91fa0|81f154bf] (05+12/17) Accurately ripped
03 [f4c3e23b|6ea62825] (05+12/17) Accurately ripped
04 [7c69adfe|26195940] (05+12/17) Accurately ripped
05 [4f8186b5|a63cd10f] (05+12/17) Accurately ripped
06 [6dc50787|b5503f94] (05+12/17) Accurately ripped
07 [333deea3|671fab8b] (05+12/17) Accurately ripped
08 [46c440ab|2d23ac6b] (05+12/17) Accurately ripped
09 [52f47e1f|3bcec357] (05+13/18) Accurately ripped

Track Peak [ CRC32 ] [W/O NULL] [ LOG ]
– 99,9 [DFBC1528] [251BF9F5] CRC32
01 98,0 [CFE1545D] [AE4091E8]
02 99,4 [8032124D] [28949440]
03 98,1 [61DF04DE] [33377234]
04 99,4 [9D7A16F9] [3CD56A4C]
05 99,0 [B2D23FEE] [B8454E9E]
06 99,9 [CCD0F05F] [95C54A6C]
07 98,3 [4BA95958] [E62AE6AF]
08 96,0 [A8EA3A02] [F4727D45]
09 95,8 [7EFCA417] [9E337FF7]


Exhorder: Slaughter In The Vatican '90 & The Law `92

All thanks go to Ginger Devil

Thrash Metal or Thrash Metal in my Blog

Download Exhorder: Slaughter In The Vatican '90 & The Law `92: