Subcategories
Tags
Language
Tags

VA - Fear Of Dirt Vol. 1: An Eastern Copulation (1992) {Mysophobic} **[RE-UP]**

Posted By: TestTickles
VA - Fear Of Dirt Vol. 1: An Eastern Copulation (1992) {Mysophobic} **[RE-UP]**

VA - Fear Of Dirt Vol. 1: An Eastern Copulation (1992) {Mysophobic}
EAC Rip | FLAC with CUE and log | scans | 422 mb
MP3 CBR 320kbps | RAR | 153 mb
Genre: indie rock, punk, hardcore

Fear Of Dirt Vol. 1: An Eastern Copulation is a 1992 compilation from Mysophonic Records, a label from eastern Washington State whose name translates to the title of this CD. It features music from Motherload, Crown, The Fumes, Maybe Days, Small, Waterman's Hollow, and another band.

VA - Fear Of Dirt Vol. 1: An Eastern Copulation (1992) {Mysophobic} **[RE-UP]**

01. Big Time Adam - Move On
02. Big Time Adam - Bring Me Down
03. Crown - Crown Anthem
04. Crown - Bend
05. Crown - Doity Lovvvin
06. The Fumes - Devil's Dragstrip
07. The Fumes - Wheelie
08. The Fumes - Grave
09. Maybe Days - Only One
10. Maybe Days - Patchouly
11. Maybe Days - Go Again
12. Motherload - Scratch
13. Motherload - Ten Percent
14. Motherload - Car Chase
15. Small - Housing
16. Small - Roll Away Soul Train
17. Small - Legalize It (Again)
18. Waterman's Hollow - Water
19. Waterman's Hollow - Gruel
20. Waterman's Hollow - Carnival Ride

Exact Audio Copy V1.1 from 23. June 2015

EAC extraction logfile from 25. January 2017, 9:13

Various Artists / Fear Of Dirt Vol. 1: An Eastern Copulation

Used drive : TEAC DVD-ROM DV-28SW Adapter: 1 ID: 0

Read mode : Secure
Utilize accurate stream : Yes
Defeat audio cache : Yes
Make use of C2 pointers : No

Read offset correction : 6
Overread into Lead-In and Lead-Out : No
Fill up missing offset samples with silence : Yes
Delete leading and trailing silent blocks : No
Null samples used in CRC calculations : Yes
Used interface : Native Win32 interface for Win NT & 2000
Gap handling : Appended to previous track

Used output format : Internal WAV Routines
Sample format : 44.100 Hz; 16 Bit; Stereo


TOC of the extracted CD

Track | Start | Length | Start sector | End sector
––––––––––––––––––––––––––––-
1 | 0:00.32 | 4:09.73 | 32 | 18779
2 | 4:10.30 | 8:45.45 | 18780 | 58199
3 | 12:56.00 | 4:05.40 | 58200 | 76614
4 | 17:01.40 | 3:13.37 | 76615 | 91126
5 | 20:15.02 | 3:55.05 | 91127 | 108756
6 | 24:10.07 | 1:52.30 | 108757 | 117186
7 | 26:02.37 | 2:20.18 | 117187 | 127704
8 | 28:22.55 | 0:44.05 | 127705 | 131009
9 | 29:06.60 | 2:44.05 | 131010 | 143314
10 | 31:50.65 | 2:21.22 | 143315 | 153911
11 | 34:12.12 | 1:46.43 | 153912 | 161904
12 | 35:58.55 | 2:43.62 | 161905 | 174191
13 | 38:42.42 | 3:03.73 | 174192 | 187989
14 | 41:46.40 | 3:42.17 | 187990 | 204656
15 | 45:28.57 | 2:05.45 | 204657 | 214076
16 | 47:34.27 | 2:19.73 | 214077 | 224574
17 | 49:54.25 | 4:50.70 | 224575 | 246394
18 | 54:45.20 | 4:21.40 | 246395 | 266009
19 | 59:06.60 | 4:25.45 | 266010 | 285929
20 | 63:32.30 | 3:12.15 | 285930 | 300344


Track 1

Filename C:\My Documents\My FLAC\VA - Fear Of Dirt Vol. 1, An Eastern Copulation (1992) [FLAC] {Mysophobic}\01 - Big Time Adam - Move On.wav

Pre-gap length 0:00:02.32

Peak level 98.2 %
Extraction speed 2.4 X
Track quality 99.9 %
Test CRC 071309CE
Copy CRC 071309CE
Track not present in AccurateRip database
Copy OK

Track 2

Filename C:\My Documents\My FLAC\VA - Fear Of Dirt Vol. 1, An Eastern Copulation (1992) [FLAC] {Mysophobic}\02 - Big Time Adam - Bring Me Down.wav

Pre-gap length 0:00:02.33

Peak level 90.6 %
Extraction speed 3.4 X
Track quality 100.0 %
Test CRC D1DBA643
Copy CRC D1DBA643
Track not present in AccurateRip database
Copy OK

Track 3

Filename C:\My Documents\My FLAC\VA - Fear Of Dirt Vol. 1, An Eastern Copulation (1992) [FLAC] {Mysophobic}\03 - Crown - Crown Anthem.wav

Pre-gap length 0:00:02.43

Peak level 93.7 %
Extraction speed 3.6 X
Track quality 100.0 %
Test CRC 52F574B3
Copy CRC 52F574B3
Track not present in AccurateRip database
Copy OK

Track 4

Filename C:\My Documents\My FLAC\VA - Fear Of Dirt Vol. 1, An Eastern Copulation (1992) [FLAC] {Mysophobic}\04 - Crown - Bend.wav

Pre-gap length 0:00:02.33

Peak level 98.3 %
Extraction speed 3.6 X
Track quality 100.0 %
Test CRC 7DA234CB
Copy CRC 7DA234CB
Track not present in AccurateRip database
Copy OK

Track 5

Filename C:\My Documents\My FLAC\VA - Fear Of Dirt Vol. 1, An Eastern Copulation (1992) [FLAC] {Mysophobic}\05 - Crown - Doity Lovvvin.wav

Pre-gap length 0:00:02.45

Peak level 95.6 %
Extraction speed 3.3 X
Track quality 99.9 %
Test CRC 6DABE9D4
Copy CRC 6DABE9D4
Track not present in AccurateRip database
Copy OK

Track 6

Filename C:\My Documents\My FLAC\VA - Fear Of Dirt Vol. 1, An Eastern Copulation (1992) [FLAC] {Mysophobic}\06 - The Fumes - Devil's Dragstrip.wav

Pre-gap length 0:00:03.40

Peak level 97.8 %
Extraction speed 3.5 X
Track quality 100.0 %
Test CRC AAB816C9
Copy CRC AAB816C9
Track not present in AccurateRip database
Copy OK

Track 7

Filename C:\My Documents\My FLAC\VA - Fear Of Dirt Vol. 1, An Eastern Copulation (1992) [FLAC] {Mysophobic}\07 - The Fumes - Wheelie.wav

Pre-gap length 0:00:01.40

Peak level 92.5 %
Extraction speed 3.8 X
Track quality 100.0 %
Test CRC 30786BDE
Copy CRC 30786BDE
Track not present in AccurateRip database
Copy OK

Track 8

Filename C:\My Documents\My FLAC\VA - Fear Of Dirt Vol. 1, An Eastern Copulation (1992) [FLAC] {Mysophobic}\08 - The Fumes - Grave.wav

Pre-gap length 0:00:01.38

Peak level 93.7 %
Extraction speed 2.6 X
Track quality 100.0 %
Test CRC 4055BB56
Copy CRC 4055BB56
Track not present in AccurateRip database
Copy OK

Track 9

Filename C:\My Documents\My FLAC\VA - Fear Of Dirt Vol. 1, An Eastern Copulation (1992) [FLAC] {Mysophobic}\09 - Maybe Days - Only One.wav

Pre-gap length 0:00:03.38

Peak level 98.2 %
Extraction speed 4.0 X
Track quality 100.0 %
Test CRC 9E5C4573
Copy CRC 9E5C4573
Track not present in AccurateRip database
Copy OK

Track 10

Filename C:\My Documents\My FLAC\VA - Fear Of Dirt Vol. 1, An Eastern Copulation (1992) [FLAC] {Mysophobic}\10 - Maybe Days - Patchouly.wav

Pre-gap length 0:00:02.43

Peak level 96.7 %
Extraction speed 4.0 X
Track quality 100.0 %
Test CRC 0E22C8F1
Copy CRC 0E22C8F1
Track not present in AccurateRip database
Copy OK

Track 11

Filename C:\My Documents\My FLAC\VA - Fear Of Dirt Vol. 1, An Eastern Copulation (1992) [FLAC] {Mysophobic}\11 - Maybe Days - Go Again.wav

Pre-gap length 0:00:01.60

Peak level 77.6 %
Extraction speed 2.8 X
Track quality 99.9 %
Test CRC E64EBDF4
Copy CRC E64EBDF4
Track not present in AccurateRip database
Copy OK

Track 12

Filename C:\My Documents\My FLAC\VA - Fear Of Dirt Vol. 1, An Eastern Copulation (1992) [FLAC] {Mysophobic}\12 - Motherload - Scratch.wav

Pre-gap length 0:00:03.20

Peak level 97.4 %
Extraction speed 4.3 X
Track quality 100.0 %
Test CRC 017755CB
Copy CRC 017755CB
Track not present in AccurateRip database
Copy OK

Track 13

Filename C:\My Documents\My FLAC\VA - Fear Of Dirt Vol. 1, An Eastern Copulation (1992) [FLAC] {Mysophobic}\13 - Motherload - Ten Percent.wav

Pre-gap length 0:00:03.15

Peak level 92.2 %
Extraction speed 4.5 X
Track quality 100.0 %
Test CRC 923C9729
Copy CRC 923C9729
Track not present in AccurateRip database
Copy OK

Track 14

Filename C:\My Documents\My FLAC\VA - Fear Of Dirt Vol. 1, An Eastern Copulation (1992) [FLAC] {Mysophobic}\14 - Motherload - Car Chase.wav

Pre-gap length 0:00:01.70

Peak level 97.9 %
Extraction speed 4.8 X
Track quality 100.0 %
Test CRC 51293B59
Copy CRC 51293B59
Track not present in AccurateRip database
Copy OK

Track 15

Filename C:\My Documents\My FLAC\VA - Fear Of Dirt Vol. 1, An Eastern Copulation (1992) [FLAC] {Mysophobic}\15 - Small - Housing.wav

Pre-gap length 0:00:04.60

Peak level 84.6 %
Extraction speed 4.4 X
Track quality 100.0 %
Test CRC 0E2F1FAF
Copy CRC 0E2F1FAF
Track not present in AccurateRip database
Copy OK

Track 16

Filename C:\My Documents\My FLAC\VA - Fear Of Dirt Vol. 1, An Eastern Copulation (1992) [FLAC] {Mysophobic}\16 - Small - Roll Away Soul Train.wav

Pre-gap length 0:00:02.20

Peak level 66.2 %
Extraction speed 4.5 X
Track quality 100.0 %
Test CRC C87B626E
Copy CRC C87B626E
Track not present in AccurateRip database
Copy OK

Track 17

Filename C:\My Documents\My FLAC\VA - Fear Of Dirt Vol. 1, An Eastern Copulation (1992) [FLAC] {Mysophobic}\17 - Small - Legalize It (Again).wav

Pre-gap length 0:00:02.60

Peak level 78.4 %
Extraction speed 5.3 X
Track quality 100.0 %
Test CRC 94347C1D
Copy CRC 94347C1D
Track not present in AccurateRip database
Copy OK

Track 18

Filename C:\My Documents\My FLAC\VA - Fear Of Dirt Vol. 1, An Eastern Copulation (1992) [FLAC] {Mysophobic}\18 - Waterman's Hollow - Water.wav

Pre-gap length 0:00:02.63

Peak level 80.4 %
Extraction speed 0.7 X
Track quality 100.0 %
Test CRC A591738A
Copy CRC A591738A
Track not present in AccurateRip database
Copy OK

Track 19

Filename C:\My Documents\My FLAC\VA - Fear Of Dirt Vol. 1, An Eastern Copulation (1992) [FLAC] {Mysophobic}\19 - Waterman's Hollow - Gruel.wav

Pre-gap length 0:00:02.58

Peak level 99.7 %
Extraction speed 4.7 X
Track quality 99.9 %
Test CRC E4CA38EE
Copy CRC E4CA38EE
Track not present in AccurateRip database
Copy OK

Track 20

Filename C:\My Documents\My FLAC\VA - Fear Of Dirt Vol. 1, An Eastern Copulation (1992) [FLAC] {Mysophobic}\20 - Waterman's Hollow - Carnival Ride.wav

Pre-gap length 0:00:02.63

Peak level 91.0 %
Extraction speed 5.3 X
Track quality 100.0 %
Test CRC 93C08B86
Copy CRC 93C08B86
Track not present in AccurateRip database
Copy OK


None of the tracks are present in the AccurateRip database

No errors occurred

End of status report

–– CUETools DB Plugin V2.1.6

[CTDB TOCID: ypv_c_SXZpAlKlXQHRo8_0C9Xcc-] disk not present in database
Submit result: ypv_c_SXZpAlKlXQHRo8_0C9Xcc- has been uploaded


==== Log checksum 94A536B4DA2166C8E6DADE6F1F822F86275FFB1BCB8BA50F9C262C1B358EBDC7 ====


VA - Fear Of Dirt Vol. 1: An Eastern Copulation (1992) {Mysophobic} **[RE-UP]**