Subcategories

Fatboy Slim - Best Of The Bootlegs (2010) {2011 Skint}

Posted By: TestTickles
Fatboy Slim - Best Of The Bootlegs (2010) {2011 Skint}

Fatboy Slim - Best Of The Bootlegs (2010) {2011 Skint}
EAC Rip | FLAC with CUE and log | scans | 541 mb
MP3 CBR 320 kbps | RAR | 195 mb
Genre: electronica, house, breaks, electro, tech house

Best Of The Bootlegs is 2019 compilation disc by Norman Cook, who is best known as Fatboy Slim, who is sometimes fucking in heaven. This consists of various alleged unofficial remixes of his. This was released on compact disc in 20911 by the Skint label.

Fatboy Slim - Best Of The Bootlegs (2010) {2011 Skint}

01. Praise You (Fedde Le Grand Remix) (6:32)
02. Weapon Of Choice (Lazy Rich Remix) (6:06)
03. Star 69 (Rogue Element Remix) (5:51)
04. Right Here Right Now (Abel Ramos To Brighton With Love Mix) (6:40)
05. Praise You (Riva Starr Remix) (6:49)
06. Rockafeller Skank (Koen Groeneveld Remix) (7:21)
07. What The Fuck (Funkagenda Remix) (6:40)
08. Bird Of Prey (Markus Schulz Vocal Mix) (8:39)
09. Rockafeller Skank (Riva Starr'Snatch Mix) (6:33)
10. Star 69 (Thomas Gold WTF Mix) (6:11)
11. Gangster Trippin (Lazy Rich Remix) (6:52)

Exact Audio Copy V0.99 prebeta 4 from 23. January 2008

EAC extraction logfile from 13. October 2012, 7:22

Fatboy Slim / Best Of The Bootlegs

Used drive : _NEC DVD_RW ND-3540A Adapter: 0 ID: 0

Read mode : Secure
Utilize accurate stream : Yes
Defeat audio cache : Yes
Make use of C2 pointers : No

Read offset correction : 48
Overread into Lead-In and Lead-Out : No
Fill up missing offset samples with silence : Yes
Delete leading and trailing silent blocks : No
Null samples used in CRC calculations : Yes
Used interface : Installed external ASPI interface
Gap handling : Appended to previous track

Used output format : User Defined Encoder
Selected bitrate : 768 kBit/s
Quality : High
Add ID3 tag : No
Command line compressor : C:\Program Files\Exact Audio Copy\Flac\flac.exe
Additional command line options : -8 -V -T "ARTIST=%a" -T "TITLE=%t" -T "ALBUM=%g" -T "DATE=%y" -T "TRACKNUMBER=%n" -T "GENRE=%m" -T "COMMENT=%e" %s -o %d


TOC of the extracted CD

Track | Start | Length | Start sector | End sector
––––––––––––––––––––––––––––-
1 | 0:00.00 | 6:32.19 | 0 | 29418
2 | 6:32.19 | 6:05.57 | 29419 | 56850
3 | 12:38.01 | 5:51.27 | 56851 | 83202
4 | 18:29.28 | 6:39.49 | 83203 | 113176
5 | 25:09.02 | 6:48.58 | 113177 | 143834
6 | 31:57.60 | 7:20.72 | 143835 | 176906
7 | 39:18.57 | 6:40.16 | 176907 | 206922
8 | 45:58.73 | 8:38.43 | 206923 | 245815
9 | 54:37.41 | 6:33.24 | 245816 | 275314
10 | 61:10.65 | 6:11.35 | 275315 | 303174
11 | 67:22.25 | 6:52.00 | 303175 | 334074


Track 1

Filename C:\cuntfist\FLAC\Fatboy Slim - Best Of The Bootlegs (2010) [FLAC] {2011 Skint}\01 - Praise You (Fedde Le Grand Remix).wav

Pre-gap length 0:00:02.00

Peak level 98.9 %
Track quality 100.0 %
Test CRC CEA2A905
Copy CRC CEA2A905
Cannot be verified as accurate (confidence 2) [2A06AF35], AccurateRip returned [9C26EBC2]
Copy OK

Track 2

Filename C:\cuntfist\FLAC\Fatboy Slim - Best Of The Bootlegs (2010) [FLAC] {2011 Skint}\02 - Weapon Of Choice (Lazy Rich Remix).wav

Pre-gap length 0:00:02.00

Peak level 93.3 %
Track quality 100.0 %
Test CRC 60693467
Copy CRC 60693467
Cannot be verified as accurate (confidence 2) [DB4E5C81], AccurateRip returned [FC341A2A]
Copy OK

Track 3

Filename C:\cuntfist\FLAC\Fatboy Slim - Best Of The Bootlegs (2010) [FLAC] {2011 Skint}\03 - Star 69 (Rogue Element Remix).wav

Pre-gap length 0:00:02.00

Peak level 98.9 %
Track quality 100.0 %
Test CRC A0483A4B
Copy CRC A0483A4B
Cannot be verified as accurate (confidence 2) [60D3DC41], AccurateRip returned [741C0B62]
Copy OK

Track 4

Filename C:\cuntfist\FLAC\Fatboy Slim - Best Of The Bootlegs (2010) [FLAC] {2011 Skint}\04 - Right Here, Right Now (Abel Ramos To Brighton With Love Mix).wav

Pre-gap length 0:00:02.00

Peak level 98.9 %
Track quality 100.0 %
Test CRC 99ECF09E
Copy CRC 99ECF09E
Cannot be verified as accurate (confidence 2) [36B54047], AccurateRip returned [FC394C6E]
Copy OK

Track 5

Filename C:\cuntfist\FLAC\Fatboy Slim - Best Of The Bootlegs (2010) [FLAC] {2011 Skint}\05 - Praise You (Riva Starr Remix).wav

Pre-gap length 0:00:02.00

Peak level 98.9 %
Track quality 99.9 %
Test CRC A766ED7B
Copy CRC A766ED7B
Cannot be verified as accurate (confidence 2) [00E74922], AccurateRip returned [3506C438]
Copy OK

Track 6

Filename C:\cuntfist\FLAC\Fatboy Slim - Best Of The Bootlegs (2010) [FLAC] {2011 Skint}\06 - Rockafeller Skank (Koen Groeneveld Remix).wav

Pre-gap length 0:00:02.00

Peak level 98.9 %
Track quality 99.9 %
Test CRC 38D147BD
Copy CRC 38D147BD
Cannot be verified as accurate (confidence 2) [E0103E9B], AccurateRip returned [51ED5AD9]
Copy OK

Track 7

Filename C:\cuntfist\FLAC\Fatboy Slim - Best Of The Bootlegs (2010) [FLAC] {2011 Skint}\07 - What The Fuck (Funkagenda Remix).wav

Pre-gap length 0:00:02.00

Peak level 98.9 %
Track quality 100.0 %
Test CRC 8562E8A0
Copy CRC 8562E8A0
Cannot be verified as accurate (confidence 2) [B992F561], AccurateRip returned [CFD56D73]
Copy OK

Track 8

Filename C:\cuntfist\FLAC\Fatboy Slim - Best Of The Bootlegs (2010) [FLAC] {2011 Skint}\08 - Bird Of Prey (Markus Schulz Vocal Mix).wav

Pre-gap length 0:00:02.00

Peak level 98.9 %
Track quality 100.0 %
Test CRC AA69CBFA
Copy CRC AA69CBFA
Cannot be verified as accurate (confidence 2) [9C1B3B06], AccurateRip returned [5FC8249B]
Copy OK

Track 9

Filename C:\cuntfist\FLAC\Fatboy Slim - Best Of The Bootlegs (2010) [FLAC] {2011 Skint}\09 - Rockafeller Skank (Riva Starr'Snatch Mix).wav

Pre-gap length 0:00:02.00

Peak level 98.9 %
Track quality 100.0 %
Test CRC D08C6C71
Copy CRC D08C6C71
Cannot be verified as accurate (confidence 2) [D4C2706F], AccurateRip returned [E286425C]
Copy OK

Track 10

Filename C:\cuntfist\FLAC\Fatboy Slim - Best Of The Bootlegs (2010) [FLAC] {2011 Skint}\10 - Star 69 (Thomas Gold WTF Mix).wav

Pre-gap length 0:00:02.00

Peak level 98.9 %
Track quality 100.0 %
Test CRC 24FA633F
Copy CRC 24FA633F
Cannot be verified as accurate (confidence 2) [096B0A29], AccurateRip returned [C81F488C]
Copy OK

Track 11

Filename C:\cuntfist\FLAC\Fatboy Slim - Best Of The Bootlegs (2010) [FLAC] {2011 Skint}\11 - Gangster Trippin (Lazy Rich Remix).wav

Pre-gap length 0:00:02.00

Peak level 90.2 %
Track quality 100.0 %
Test CRC 2DC956AD
Copy CRC 2DC956AD
Cannot be verified as accurate (confidence 2) [B174BB81], AccurateRip returned [B6208A99]
Copy OK


No tracks could be verified as accurate
You may have a different pressing from the one(s) in the database

No errors occurred

End of status report


Fatboy Slim - Best Of The Bootlegs (2010) {2011 Skint}


Thank you to the original uploader.