Subcategories

Flight Of The Conchords - The Distant Future (EP) (2007) {Sub Pop} **[RE-UP]**

Posted By: TestTickles
Flight Of The Conchords - The Distant Future (EP) (2007) {Sub Pop} **[RE-UP]**

Flight Of The Conchords - The Distant Future (EP) (2007) {Sub Pop}
EAC Rip | FLAC with CUE and log | scans | 121 mb
MP3 CBR 320kbps | RAR | 54 mb
Genre: comedy, pop, rock

The Distant Future is the 2007 EP by New Zealand comedy duo Bret McKenzie and Jemaine Clement, better known together as Flight Of The Conchords. Released by Sub Pop, this is hilariously funny and funnily hilarious.
Winner of Best Comedy Album at the 50th annual Grammy Awards, even if it's actually an extended play, or EP.

Flight Of The Conchords - The Distant Future (EP) (2007) {Sub Pop} **[RE-UP]**

1. Business Time (4:05)
2. If You're Not Into It (1:45)
3. I'm Not Crying (3:24)
4. The Most Beautiful Girl (In The Room) (Live) (5:10)
5. Banter (Live) (3:32)
6. Robots (Live) (4:59)

Produced by Flight Of The Conchords and Mickey Petralia
Live tracks (#4 to 6) recorded by Chris Barc
Mixed by Mickey Petralia
Mastered by Chris Athens

Flight Of The Conchords - The Distant Future (EP) (2007) {Sub Pop} **[RE-UP]**


Exact Audio Copy V1.1 from 23. June 2015

EAC extraction logfile from 19. July 2016, 22:38

Flight Of The Conchords / The Distant Future (EP)

Used drive : TEAC DVD-ROM DV-28SW Adapter: 1 ID: 0

Read mode : Secure
Utilize accurate stream : Yes
Defeat audio cache : Yes
Make use of C2 pointers : No

Read offset correction : 6
Overread into Lead-In and Lead-Out : No
Fill up missing offset samples with silence : Yes
Delete leading and trailing silent blocks : No
Null samples used in CRC calculations : Yes
Used interface : Native Win32 interface for Win NT & 2000
Gap handling : Appended to previous track

Used output format : Internal WAV Routines
Sample format : 44.100 Hz; 16 Bit; Stereo


TOC of the extracted CD

Track | Start | Length | Start sector | End sector
––––––––––––––––––––––––––––-
1 | 0:00.00 | 4:05.25 | 0 | 18399
2 | 4:05.25 | 1:45.59 | 18400 | 26333
3 | 5:51.09 | 3:24.03 | 26334 | 41636
4 | 9:15.12 | 5:10.17 | 41637 | 64903
5 | 14:25.29 | 3:32.60 | 64904 | 80863
6 | 17:58.14 | 4:59.53 | 80864 | 103341


Track 1

Filename C:\My Documents\My FLAC\Flight Of The Conchords - The Distant Future (EP) (2007) [FLAC] {Sub Pop}\01 - Business Time.wav

Pre-gap length 0:00:02.00

Peak level 97.7 %
Extraction speed 1.0 X
Track quality 99.9 %
Test CRC 6D23B269
Copy CRC 6D23B269
Accurately ripped (confidence 36) [906BC196] (AR v2)
Copy OK

Track 2

Filename C:\My Documents\My FLAC\Flight Of The Conchords - The Distant Future (EP) (2007) [FLAC] {Sub Pop}\02 - If You're Into It.wav

Peak level 97.7 %
Extraction speed 1.1 X
Track quality 100.0 %
Test CRC 52B90E85
Copy CRC 52B90E85
Accurately ripped (confidence 36) [87864FD7] (AR v2)
Copy OK

Track 3

Filename C:\My Documents\My FLAC\Flight Of The Conchords - The Distant Future (EP) (2007) [FLAC] {Sub Pop}\03 - I'm Not Crying.wav

Peak level 97.7 %
Extraction speed 1.3 X
Track quality 100.0 %
Test CRC 8F97F056
Copy CRC 8F97F056
Accurately ripped (confidence 36) [841BBEDE] (AR v2)
Copy OK

Track 4

Filename C:\My Documents\My FLAC\Flight Of The Conchords - The Distant Future (EP) (2007) [FLAC] {Sub Pop}\04 - The Most Beautiful Girl In The Room (Live).wav

Peak level 98.8 %
Extraction speed 1.6 X
Track quality 100.0 %
Test CRC 3D739208
Copy CRC 3D739208
Accurately ripped (confidence 36) [EDE55422] (AR v2)
Copy OK

Track 5

Filename C:\My Documents\My FLAC\Flight Of The Conchords - The Distant Future (EP) (2007) [FLAC] {Sub Pop}\05 - Banter (Live).wav

Peak level 86.2 %
Extraction speed 1.4 X
Track quality 99.9 %
Test CRC DF2E5A3D
Copy CRC DF2E5A3D
Accurately ripped (confidence 36) [8BE08861] (AR v2)
Copy OK

Track 6

Filename C:\My Documents\My FLAC\Flight Of The Conchords - The Distant Future (EP) (2007) [FLAC] {Sub Pop}\06 - Robots (Live).wav

Peak level 98.8 %
Extraction speed 0.6 X
Track quality 100.0 %
Test CRC EF7CAE22
Copy CRC EF7CAE22
Accurately ripped (confidence 36) [A28DDA34] (AR v2)
Copy OK


All tracks accurately ripped

No errors occurred

End of status report

–– CUETools DB Plugin V2.1.6

[CTDB TOCID: gDkyGqfBMRFOaevjRsfNTHsixjg-] found
Submit result: gDkyGqfBMRFOaevjRsfNTHsixjg- has been confirmed
Track | CTDB Status
1 | (55/55) Accurately ripped
2 | (55/55) Accurately ripped
3 | (55/55) Accurately ripped
4 | (55/55) Accurately ripped
5 | (55/55) Accurately ripped
6 | (55/55) Accurately ripped


==== Log checksum 2D9E8E9889F28C01A5015DCE4B79236B04F3501598A3C7B7C0C4C6C38BA652F9 ====


Flight Of The Conchords - The Distant Future (EP) (2007) {Sub Pop} **[RE-UP]**