Subcategories

The Frontier Brothers - Space Punk Starlet (2009)

Posted By: TestTickles
The Frontier Brothers - Space Punk Starlet (2009)

The Frontier Brothers - Space Punk Starlet (2009)
EAC Rip | FLAC with CUE and log | scans | 346 mb
MP3 CBR 320kbps | RAR | 140 mb
Genre: indie rock

Space Punk Starlet is the 2009 album by The Frontier Brothers, who are not named Frontier nor are they actual brothers. The group released this on their own wallet.

The Frontier Brothers - Space Punk Starlet (2009)

01. Space Punk Starlet
02. The Future Is
03. Get Up Go
04. Take It For Love
05. Ego Protection
06. How Do You Make Movies When You're Under The Sea
07. Kickstand Woman
08. Starry Globes & Stereos
09. Everyone's A Neutron Bomb
10. Magazine Soul
11. Jump Blues
12. Technicalelectronicsupersonicrobot (T.E.S.S.)
13. Plastic Bag
14. T.E.S.S. You Are A Wonderful Robit, Stay WIth Me All The Time

Marshall Galactic-guitar, vocals
Travis Newman-drums, bass, various percussion
Brett Moses-keyboards, organ, harmonica

Eternal gratitude to Stuart Sullivan, Brad, Joey, and the rest of the gang at Wire Recording

Exact Audio Copy V0.99 prebeta 4 from 23. January 2008

EAC extraction logfile from 12. May 2009, 9:12

The Frontier Brothers / Space Punk Starlet

Used drive : TSSTcorpDVD+-RW TS-H653B Adapter: 2 ID: 0

Read mode : Secure
Utilize accurate stream : Yes
Defeat audio cache : Yes
Make use of C2 pointers : No

Read offset correction : 6
Overread into Lead-In and Lead-Out : No
Fill up missing offset samples with silence : Yes
Delete leading and trailing silent blocks : No
Null samples used in CRC calculations : Yes
Used interface : Native Win32 interface for Win NT & 2000
Gap handling : Appended to previous track

Used output format : Internal WAV Routines
Sample format : 44.100 Hz; 16 Bit; Stereo


TOC of the extracted CD

Track | Start | Length | Start sector | End sector
––––––––––––––––––––––––––––-
1 | 0:00.00 | 4:07.68 | 0 | 18592
2 | 4:07.68 | 2:57.40 | 18593 | 31907
3 | 7:05.33 | 3:09.16 | 31908 | 46098
4 | 10:14.49 | 3:28.40 | 46099 | 61738
5 | 13:43.14 | 3:05.49 | 61739 | 75662
6 | 16:48.63 | 1:00.41 | 75663 | 80203
7 | 17:49.29 | 3:56.65 | 80204 | 97968
8 | 21:46.19 | 4:23.56 | 97969 | 117749
9 | 26:10.00 | 3:55.21 | 117750 | 135395
10 | 30:05.21 | 3:58.72 | 135396 | 153317
11 | 34:04.18 | 2:46.58 | 153318 | 165825
12 | 36:51.01 | 2:57.65 | 165826 | 179165
13 | 39:48.66 | 3:40.21 | 179166 | 195686
14 | 43:29.12 | 1:25.48 | 195687 | 202109


Track 1

Filename C:\FLAC\The Frontier Brothers - Space Punk Starlet (2009) [FLAC]\01 - Space Punk Starlet.wav

Pre-gap length 0:00:02.00

Peak level 99.9 %
Track quality 100.0 %
Test CRC 76DAF970
Copy CRC 76DAF970
Track not present in AccurateRip database
Copy OK

Track 2

Filename C:\FLAC\The Frontier Brothers - Space Punk Starlet (2009) [FLAC]\02 - The Future Is.wav

Pre-gap length 0:00:00.96

Peak level 99.9 %
Track quality 100.0 %
Test CRC 66AFA451
Copy CRC 66AFA451
Track not present in AccurateRip database
Copy OK

Track 3

Filename C:\FLAC\The Frontier Brothers - Space Punk Starlet (2009) [FLAC]\03 - Get Up Go.wav

Peak level 99.9 %
Track quality 100.0 %
Test CRC A7F876B7
Copy CRC A7F876B7
Track not present in AccurateRip database
Copy OK

Track 4

Filename C:\FLAC\The Frontier Brothers - Space Punk Starlet (2009) [FLAC]\04 - Take It For Love.wav

Peak level 99.9 %
Track quality 99.9 %
Test CRC AEA36B91
Copy CRC AEA36B91
Track not present in AccurateRip database
Copy OK

Track 5

Filename C:\FLAC\The Frontier Brothers - Space Punk Starlet (2009) [FLAC]\05 - Ego Protection.wav

Pre-gap length 0:00:02.81

Peak level 99.9 %
Track quality 100.0 %
Test CRC F8C408E5
Copy CRC F8C408E5
Track not present in AccurateRip database
Copy OK

Track 6

Filename C:\FLAC\The Frontier Brothers - Space Punk Starlet (2009) [FLAC]\06 - How Do You Make Movies When You're Under The Sea.wav

Pre-gap length 0:00:00.97

Peak level 99.9 %
Track quality 100.0 %
Test CRC 71A6D5A9
Copy CRC 71A6D5A9
Track not present in AccurateRip database
Copy OK

Track 7

Filename C:\FLAC\The Frontier Brothers - Space Punk Starlet (2009) [FLAC]\07 - Kickstand Woman.wav

Peak level 99.9 %
Track quality 100.0 %
Test CRC 8BBE134D
Copy CRC 8BBE134D
Track not present in AccurateRip database
Copy OK

Track 8

Filename C:\FLAC\The Frontier Brothers - Space Punk Starlet (2009) [FLAC]\08 - Starry Globes & Stereos.wav

Peak level 99.9 %
Track quality 100.0 %
Test CRC 5B77EF0B
Copy CRC 5B77EF0B
Track not present in AccurateRip database
Copy OK

Track 9

Filename C:\FLAC\The Frontier Brothers - Space Punk Starlet (2009) [FLAC]\09 - Everyone's A Neutron Bomb.wav

Pre-gap length 0:00:03.36

Peak level 99.9 %
Track quality 100.0 %
Test CRC 67451DB0
Copy CRC 67451DB0
Track not present in AccurateRip database
Copy OK

Track 10

Filename C:\FLAC\The Frontier Brothers - Space Punk Starlet (2009) [FLAC]\10 - Magazine Soul.wav

Pre-gap length 0:00:03.25

Peak level 99.9 %
Track quality 100.0 %
Test CRC 500476B5
Copy CRC 500476B5
Track not present in AccurateRip database
Copy OK

Track 11

Filename C:\FLAC\The Frontier Brothers - Space Punk Starlet (2009) [FLAC]\11 - Jump Blues.wav

Pre-gap length 0:00:04.34

Peak level 99.9 %
Track quality 100.0 %
Test CRC B3CCC338
Copy CRC B3CCC338
Track not present in AccurateRip database
Copy OK

Track 12

Filename C:\FLAC\The Frontier Brothers - Space Punk Starlet (2009) [FLAC]\12 - Technicalelectronicsupersonicrobot (T.E.S.S.).wav

Pre-gap length 0:00:00.29

Peak level 99.9 %
Track quality 100.0 %
Test CRC 15CF87C1
Copy CRC 15CF87C1
Track not present in AccurateRip database
Copy OK

Track 13

Filename C:\FLAC\The Frontier Brothers - Space Punk Starlet (2009) [FLAC]\13 - Plastic Bag.wav

Pre-gap length 0:00:02.41

Peak level 99.9 %
Track quality 100.0 %
Test CRC C5BA7E7F
Copy CRC C5BA7E7F
Track not present in AccurateRip database
Copy OK

Track 14

Filename C:\FLAC\The Frontier Brothers - Space Punk Starlet (2009) [FLAC]\14 - T.E.S.S. You Are A Wonderful Robit, Stay WIth Me All The Time.wav

Peak level 99.9 %
Track quality 100.0 %
Test CRC 0862E817
Copy CRC 0862E817
Track not present in AccurateRip database
Copy OK


None of the tracks are present in the AccurateRip database

No errors occurred

End of status report


The Frontier Brothers - Space Punk Starlet (2009)