Subcategories

Frijid Pink - Earth Omen (1972) {2002 Akarma}

Posted By: TestTickles
Frijid Pink - Earth Omen (1972) {2002 Akarma}

Frijid Pink - Earth Omen (1972) {2002 Akarma}
EAC Rip | FLAC with CUE and log | scans | 269 mb
MP3 CBR 320kbps | RAR | 99 mb
Genre: hard rock, blues rock, psychedelic rock

Earth Omen is the 1972 album by Detroit blues rock band Frijid Pink. This was remastered and reissued in 2002 by Akarma Records.
I am a big fan of this group and this is my favorite recording of theirs. Actually 2 original members were on this recording, Rick Stevers and Tom Harris, who was never credited on the first two albums. The title song "Earth Omen" was a timely song about pollution concerns and respect for the planet. "Lazy Day" is a wonderful song about being home with the folks you love. "Sailor" is also a great tune. It is a shame this album wasn't more commercially successful at the time it was released. The musicans on this CD were obviously very talented. It may be a bit of a departure for those we are big fans of the "Frijid Pink" and "Defrosted" albums, but it is surely a worthwhile effort.

1. Miss Evil
2. Sailor
3. Earth Omen
4. Lazy Day
5. Train Woman
6. Eternal Dream
7. New Horizon
8. Rainbow Rider
9. Mr. Blood
10. Lazy Day (Single Version) (Bonus Track)
11. Go Now (Bonus Track)

Jon Wearing-lead vocals
Rich Stevers-drums
Larry Zelanka-piano & organ
Craig Webb-lead guitar
Tom Harris-bass guitar

Produced by Vinny Testa & Clyde Stevers

EAC extraction logfile from 5. December 2005, 14:01 for CD
Fridjid Pink / Earth Omen

Used drive : JLMS XJ-HD166S Adapter: 2 ID: 1
Read mode : Secure with NO C2, accurate stream, disable cache
Read offset correction : 12
Overread into Lead-In and Lead-Out : No

Used output format : Internal WAV Routines
44.100 Hz; 16 Bit; Stereo

Other options :
Fill up missing offset samples with silence : Yes
Delete leading and trailing silent blocks : No
Installed external ASPI interface


Track 1
Filename C:\FLAC\Frijid Pink - Earth Omen (1972) [FLAC] {2002 Akarma}\01 - Miss Evil.wav

Pre-gap length 0:00:02.00

Peak level 99.0 %
Track quality 100.0 %
Test CRC 8966EDCC
Copy CRC 8966EDCC
Copy OK

Track 2
Filename C:\FLAC\Frijid Pink - Earth Omen (1972) [FLAC] {2002 Akarma}\02 - Sailor.wav

Peak level 99.9 %
Track quality 100.0 %
Test CRC 1A649663
Copy CRC 1A649663
Copy OK

Track 3
Filename C:\FLAC\Frijid Pink - Earth Omen (1972) [FLAC] {2002 Akarma}\03 - Earth Omen.wav

Peak level 99.9 %
Track quality 100.0 %
Test CRC C12DFAB7
Copy CRC C12DFAB7
Copy OK

Track 4
Filename C:\FLAC\Frijid Pink - Earth Omen (1972) [FLAC] {2002 Akarma}\04 - Lazy Day.wav

Peak level 97.6 %
Track quality 100.0 %
Test CRC 647A3959
Copy CRC 647A3959
Copy OK

Track 5
Filename C:\FLAC\Frijid Pink - Earth Omen (1972) [FLAC] {2002 Akarma}\05 - Train Woman.wav

Peak level 99.9 %
Track quality 100.0 %
Test CRC 43CA4861
Copy CRC 43CA4861
Copy OK

Track 6
Filename C:\FLAC\Frijid Pink - Earth Omen (1972) [FLAC] {2002 Akarma}\06 - Eternal Dream.wav

Peak level 99.9 %
Track quality 100.0 %
Test CRC 6E54D815
Copy CRC 6E54D815
Copy OK

Track 7
Filename C:\FLAC\Frijid Pink - Earth Omen (1972) [FLAC] {2002 Akarma}\07 - New Horizon.wav

Peak level 98.4 %
Track quality 100.0 %
Test CRC 7EBC1AEA
Copy CRC 7EBC1AEA
Copy OK

Track 8
Filename C:\FLAC\Frijid Pink - Earth Omen (1972) [FLAC] {2002 Akarma}\08 - Rainbow Rider.wav

Peak level 94.5 %
Track quality 100.0 %
Test CRC 44CA472E
Copy CRC 44CA472E
Copy OK

Track 9
Filename C:\FLAC\Frijid Pink - Earth Omen (1972) [FLAC] {2002 Akarma}\09 - Mr. Blood.wav

Peak level 99.9 %
Track quality 100.0 %
Test CRC 44F76786
Copy CRC 44F76786
Copy OK

Track 10
Filename C:\FLAC\Frijid Pink - Earth Omen (1972) [FLAC] {2002 Akarma}\10 - Lazy Day, Single Version.wav

Peak level 92.8 %
Track quality 99.9 %
Test CRC 40F0A298
Copy CRC 40F0A298
Copy OK

Track 11
Filename C:\FLAC\Frijid Pink - Earth Omen (1972) [FLAC] {2002 Akarma}\11 - Go Now.wav

Peak level 96.1 %
Track quality 100.0 %
Test CRC 98519B6C
Copy CRC 98519B6C
Copy OK

No errors occured


End of status report


Frijid Pink - Earth Omen (1972) {2002 Akarma}


Thank you to the original uploader