Subcategories

The Future Sound Of London - Far-Out Son Of Lung & The Ramblings Of A Madman (EP) (1995) {Holland}

Posted By: TestTickles
The Future Sound Of London - Far-Out Son Of Lung & The Ramblings Of A Madman (EP) (1995) {Holland}

The Future Sound Of London - Far-Out Son Of Lung & The Ramblings Of A Madman (EP) (1995) {Holland}
EAC Rip | FLAC with CUE and log | scans | 139 mb
MP3 CBR 320kbps | RAR | 61 mb
Genre: electronica

Far-Out Son Of Lung & The Ramblings Of A Madman is a 4-song EP released in 1995 by The Future Sound Of London. This EP is known for its song and video for "Amoeba".

The Future Sound Of London - Far-Out Son Of Lung & The Ramblings Of A Madman (EP) (1995) {Holland}

1. Far-Out Son Of Lung & The Ramblings Of A Madman
2. Snake Hips
3. Smokin' Japanese Babe
4. Amoeba

–-
All tracks written and produced by The Future Sound Of London
Recorded at Earthbeat Studios, London, 1995
Engineered by Yage for EBv

Phillip Pin-bassballs (track 1)
John Williams-acoustic bass loops source from the album Cavatina-Put Through The Machines (track 3)

The Future Sound Of London - Far-Out Son Of Lung & The Ramblings Of A Madman (EP) (1995) {Holland}


EAC extraction logfile from 13. May 2007, 12:54 for CD
The Future Sound of London / Far-Out Son Of Lung & The Ramblings Of A Madman

Used drive : LITE-ON DVDRW SOHW-1633S Adapter: 0 ID: 0
Read mode : Secure with NO C2, accurate stream, disable cache
Read offset correction : 12
Overread into Lead-In and Lead-Out : No

Used output format : Internal WAV Routines
44.100 Hz; 16 Bit; Stereo

Other options :
Fill up missing offset samples with silence : Yes
Delete leading and trailing silent blocks : No
Installed external ASPI interface


Track 1
Filename D:\FLAC\The Future Sound Of London - Far-Out Son Of Lung… (EP) (1995) [FLAC] {Holland}\01 - Far-Out Son Of Lung & The Ramblings Of A Madman.wav

Pre-gap length 0:00:02.00

Peak level 99.4 %
Track quality 100.0 %
Test CRC E61598C1
Copy CRC E61598C1
Copy OK

Track 2
Filename D:\FLAC\The Future Sound Of London - Far-Out Son Of Lung… (EP) (1995) [FLAC] {Holland}\02 - Snake Hips.wav

Peak level 97.2 %
Track quality 100.0 %
Test CRC 455086F9
Copy CRC 455086F9
Copy OK

Track 3
Filename D:\FLAC\The Future Sound Of London - Far-Out Son Of Lung… (EP) (1995) [FLAC] {Holland}\03 - Smokin' Japanese Babe.wav

Peak level 99.4 %
Track quality 100.0 %
Test CRC 336367BA
Copy CRC 336367BA
Copy OK

Track 4
Filename D:\FLAC\The Future Sound Of London - Far-Out Son Of Lung… (EP) (1995) [FLAC] {Holland}\04 - Amoeba.wav

Peak level 99.4 %
Track quality 100.0 %
Test CRC 3716E530
Copy CRC 3716E530
Copy OK

No errors occured


End of status report
NITROFLARE (FLAC)
NITROFLARE (MP3)