Subcategories

David Fiuczynski/John Medeski - Lunar Crush (1994) {Gramavision/Rhino} **[RE-UP]**

Posted By: TestTickles
David Fiuczynski/John Medeski - Lunar Crush (1994) {Gramavision/Rhino} **[RE-UP]**

David Fiuczynski/John Medeski - Lunar Crush (1994) {Gramavision/Rhino}
EAC Rip | FLAC with CUE and log | scans | 396 mb
MP3 CBR 320kbps | RAR | 142 mb
Genre: jazz

Lunar Crush is the 1994 collaboration album between guitarist David Fiuczynski and organist John Medeski. Released by Gramavision/Rhino on 15 November, 1994, they are joined with Fima Ephron (bass), Jojo Mayer (drums), Gene Lake (drums), and Gloria Tropp and Michelle Johnson (not drums).

David Fiuczynski/John Medeski - Lunar Crush (1994) {Gramavision/Rhino} **[RE-UP]**

01. Vog
02. Pacifica
03. Gloria Ascending
04. Pineapple
05. Quest
06. Freelance Brown
07. Slow Blues For Fuzy's Mama
08. Lillies That Fester…
09. 122 St. Marks
10. Fima's Sunrise
–-
David "Fuze" Fiuczynski-guitar, lyrics
John Medeski-keyboards
Fima Ephron-acoustic & electric bass
Jojo Mayer-drums
Gene Lake-drums
Gloria Tropp, Michelle Johnson-vocals

Recorded at RPM Studios, New York on January 5-7, 1994

Produced by Jim Payne
Recorded and mixed by Ed Tuton

EAC extraction logfile from 6. July 2006, 8:13 for CD
David Fiuczynski, John Medeski / Lunar Crush

Used drive : LITE-ON DVDRW SOHW-1633S Adapter: 0 ID: 0
Read mode : Secure with NO C2, accurate stream, disable cache
Read offset correction : 12
Overread into Lead-In and Lead-Out : No

Used output format : Internal WAV Routines
44.100 Hz; 16 Bit; Stereo

Other options :
Fill up missing offset samples with silence : Yes
Delete leading and trailing silent blocks : No
Installed external ASPI interface


Track 1
Filename D:\FLAC\David Fiuczynski, John Medeski - Lunar Crush (1994) [FLAC] {Gramavision, Rhino}\01 - Vog.wav

Pre-gap length 0:00:02.42

Peak level 97.3 %
Track quality 100.0 %
Test CRC FFF7E8DD
Copy CRC FFF7E8DD
Copy OK

Track 2
Filename D:\FLAC\David Fiuczynski, John Medeski - Lunar Crush (1994) [FLAC] {Gramavision, Rhino}\02 - Pacifica.wav

Pre-gap length 0:00:00.17

Peak level 97.3 %
Track quality 100.0 %
Test CRC BC4AED69
Copy CRC BC4AED69
Copy OK

Track 3
Filename D:\FLAC\David Fiuczynski, John Medeski - Lunar Crush (1994) [FLAC] {Gramavision, Rhino}\03 - Gloria Ascending.wav

Pre-gap length 0:00:00.33

Peak level 97.3 %
Track quality 100.0 %
Test CRC CC11506E
Copy CRC CC11506E
Copy OK

Track 4
Filename D:\FLAC\David Fiuczynski, John Medeski - Lunar Crush (1994) [FLAC] {Gramavision, Rhino}\04 - Pineapple.wav

Pre-gap length 0:00:01.22

Peak level 97.3 %
Track quality 100.0 %
Test CRC DB6CEA1A
Copy CRC DB6CEA1A
Copy OK

Track 5
Filename D:\FLAC\David Fiuczynski, John Medeski - Lunar Crush (1994) [FLAC] {Gramavision, Rhino}\05 - Quest.wav

Peak level 97.3 %
Track quality 100.0 %
Test CRC 70299A1B
Copy CRC 70299A1B
Copy OK

Track 6
Filename D:\FLAC\David Fiuczynski, John Medeski - Lunar Crush (1994) [FLAC] {Gramavision, Rhino}\06 - Freelance Brown.wav

Pre-gap length 0:00:02.66

Peak level 92.9 %
Track quality 100.0 %
Test CRC B277EBC3
Copy CRC B277EBC3
Copy OK

Track 7
Filename D:\FLAC\David Fiuczynski, John Medeski - Lunar Crush (1994) [FLAC] {Gramavision, Rhino}\07 - Slow Blues For Fuzy's Mama.wav

Pre-gap length 0:00:00.49

Peak level 97.3 %
Track quality 100.0 %
Test CRC F2B81B10
Copy CRC F2B81B10
Copy OK

Track 8
Filename D:\FLAC\David Fiuczynski, John Medeski - Lunar Crush (1994) [FLAC] {Gramavision, Rhino}\08 - Lillies That Fester….wav

Pre-gap length 0:00:00.60

Peak level 97.3 %
Track quality 100.0 %
Test CRC F2912982
Copy CRC F2912982
Copy OK

Track 9
Filename D:\FLAC\David Fiuczynski, John Medeski - Lunar Crush (1994) [FLAC] {Gramavision, Rhino}\09 - 122 St. Marks.wav

Pre-gap length 0:00:00.24

Peak level 97.3 %
Track quality 100.0 %
Test CRC 4F911EAB
Copy CRC 4F911EAB
Copy OK

Track 10
Filename D:\FLAC\David Fiuczynski, John Medeski - Lunar Crush (1994) [FLAC] {Gramavision, Rhino}\10 - Fima's Sunrise.wav

Pre-gap length 0:00:02.24

Peak level 97.3 %
Track quality 100.0 %
Test CRC 4DD8DFEB
Copy CRC 4DD8DFEB
Copy OK

No errors occured


End of status report


David Fiuczynski/John Medeski - Lunar Crush (1994) {Gramavision/Rhino} **[RE-UP]**