Subcategories

Faith No More - This Is It: The Best of Faith No More (2003)

Posted By: Designol
Faith No More - This Is It: The Best of Faith No More (2003)

Faith No More - This Is It: The Best of Faith No More (2003)
EAC | FLAC | Image (Cue&Log) ~ 606 Mb | Mp3 (CBR320) ~ 221 Mb | Scans included
Alternative Rock, Funk Metal | Label: Slash/Reprise/Rhino | # 8122-76099-2 | 01:19:32

The first single-CD collection from these genre-busting (metal? rap? funk? punk?) rockers! Epic; Introduce Yourself; We Care a Lot (Slash version); Easy; War Pigs; Evidence , and more key cuts from 1985 to 1997 join rarities like Arabian Disco and more- from the bizarre to the brilliant!

Often snickered at by critics during the band's colorful career, it wasn't until after Faith No More's split that the group began receiving the recognition that it deserved the first time around – when a legion of "nu-metal" bands admitted that FNM was a major influence. With one FNM "hits" compilation already in the marketplace (1998's Who Cares a Lot: Greatest Hits), it's rather confusing as to why another set, 2003's This Is It: The Best of Faith No More, would surface relatively soon after. What makes the two releases different is that the former was a double-disc set (one disc being "hits," the other rarities), while the latter is solely a "best-of" set, and contains a slightly larger track listing. Starting off with the "Chuck Mosely Years" (FNM's original vocalist), you can trace the band quickly building its own original sound on such tracks as "We Care a Lot" and "Anne's Song," before Mike Patton's arrival proved to be the final piece to the FNM puzzle. The majority of the selections on This Is It are with Patton at the helm, including their breakthrough rap-metal hybrid "Epic," as well as more challenging material when the group really hit its stride – "Midlife Crisis," "Be Aggressive," "Digging the Grave," "Evidence," "Last Cup of Sorrow," and the band's cover of the Commodores' "Easy." In addition to the hits, a smattering of rarities is included, such as the Real Thing outtakes "The Cowboy Song" and "The Perfect Crime," plus a 1990 live version of the early track "As the Worm Turns." As with most "best-of" sets, longtime fans may squabble about key tracks that are absent ("Caffeine," "Ricochet," "Gentle Art of Making Enemies," "Stripsearch," etc.), but overall, This Is It: The Best of Faith No More is a fine collection of one of hard rock's all-time best.

Review by Greg Prato, Allmusic.com

Faith No More - This Is It: The Best of Faith No More (2003)



Tracklist:

01. Arabian Disco (3:18)
02. We Care A Lot (Slash Version) (4:03)
03. Anne's Song (4:46)
04. Introduce Yourself (1:34)
05. From Out Of Nowhere (3:22)
06. Epic (4:54)
07. Falling To Pieces (5:14)
08. War Pigs (7:47)
09. The Cowboy Song (5:14)
10. As The Worm Turns (Live) (2:46)
11. Midlife Crisis (4:21)
12. A Small Victory (4:57)
13. Be Aggressive (3:42)
14. Easy (3:09)
15. Digging The Grave (3:05)
16. Evidence (4:54)
17. Last Cup Of Sorrow (4:21)
18. Ashes To Ashes (3:39)
19. The Perfect Crime (4:25)


Exact Audio Copy V1.0 beta 2 from 29. April 2011

EAC extraction logfile from 18. October 2011, 21:42

Faith No More / This Is It: The Best Of Faith No More

Used drive : ATAPI DVD A DH20A3H Adapter: 4 ID: 0

Read mode : Secure
Utilize accurate stream : Yes
Defeat audio cache : Yes
Make use of C2 pointers : No

Read offset correction : 6
Overread into Lead-In and Lead-Out : No
Fill up missing offset samples with silence : Yes
Delete leading and trailing silent blocks : No
Null samples used in CRC calculations : Yes
Used interface : Native Win32 interface for Win NT & 2000

Used output format : User Defined Encoder
Selected bitrate : 768 kBit/s
Quality : High
Add ID3 tag : No
Command line compressor : C:\Program Files\Exact Audio Copy\Flac\flac.exe
Additional command line options : -8 -V %source%


TOC of the extracted CD

Track | Start | Length | Start sector | End sector
––––––––––––––––––––––––––––-
1 | 0:00.00 | 3:18.37 | 0 | 14886
2 | 3:18.37 | 4:02.63 | 14887 | 33099
3 | 7:21.25 | 4:46.05 | 33100 | 54554
4 | 12:07.30 | 1:33.47 | 54555 | 61576
5 | 13:41.02 | 3:22.25 | 61577 | 76751
6 | 17:03.27 | 4:53.70 | 76752 | 98796
7 | 21:57.22 | 5:13.43 | 98797 | 122314
8 | 27:10.65 | 7:47.32 | 122315 | 157371
9 | 34:58.22 | 5:13.63 | 157372 | 180909
10 | 40:12.10 | 2:46.02 | 180910 | 193361
11 | 42:58.12 | 4:21.05 | 193362 | 212941
12 | 47:19.17 | 4:57.10 | 212942 | 235226
13 | 52:16.27 | 3:42.33 | 235227 | 251909
14 | 55:58.60 | 3:09.00 | 251910 | 266084
15 | 59:07.60 | 3:05.12 | 266085 | 279971
16 | 62:12.72 | 4:54.18 | 279972 | 302039
17 | 67:07.15 | 4:20.55 | 302040 | 321594
18 | 71:27.70 | 3:39.20 | 321595 | 338039
19 | 75:07.15 | 4:25.00 | 338040 | 357914


Range status and errors

Selected range

Filename E:\Faith No More - This Is It- The Best Of Faith No More.wav

Peak level 98.8 %
Extraction speed 8.5 X
Range quality 99.9 %
Copy CRC B088A81C
Copy OK

No errors occurred


AccurateRip summary

Track 1 accurately ripped (confidence 6) [F74744DE] (AR v2)
Track 2 accurately ripped (confidence 6) [40871857] (AR v2)
Track 3 accurately ripped (confidence 6) [908E5919] (AR v2)
Track 4 accurately ripped (confidence 6) [922F017F] (AR v2)
Track 5 accurately ripped (confidence 6) [2F4E569C] (AR v2)
Track 6 accurately ripped (confidence 6) [3DCDAA31] (AR v2)
Track 7 accurately ripped (confidence 6) [B913BF7A] (AR v2)
Track 8 accurately ripped (confidence 6) [D0AFAE71] (AR v2)
Track 9 accurately ripped (confidence 6) [4930783F] (AR v2)
Track 10 accurately ripped (confidence 6) [1CAE78EA] (AR v2)
Track 11 accurately ripped (confidence 6) [EE07153E] (AR v2)
Track 12 accurately ripped (confidence 6) [1D0293BD] (AR v2)
Track 13 accurately ripped (confidence 6) [B046D8D4] (AR v2)
Track 14 accurately ripped (confidence 6) [86DE6F4B] (AR v2)
Track 15 accurately ripped (confidence 6) [5165B83A] (AR v2)
Track 16 accurately ripped (confidence 6) [F18C5707] (AR v2)
Track 17 accurately ripped (confidence 6) [817E3400] (AR v2)
Track 18 accurately ripped (confidence 6) [A048F414] (AR v2)
Track 19 accurately ripped (confidence 6) [FA60AEE3] (AR v2)

All tracks accurately ripped

End of status report

[CUETools log; Date: 14.06.2018 16:51:46; Version: 2.1.4]
[CTDB TOCID: IYkHA.G6uyEWpNfh.pUxD1A05uc-] found.
Track | CTDB Status
1 | (135/140) Accurately ripped
2 | (137/140) Accurately ripped
3 | (137/140) Accurately ripped
4 | (137/140) Accurately ripped
5 | (137/140) Accurately ripped
6 | (136/140) Accurately ripped
7 | (137/140) Accurately ripped
8 | (103/140) Accurately ripped, or (17/140) differs in 1 samples @06:40:59, or (12/140) differs in 1 samples @06:40:59
9 | (103/140) Accurately ripped, or (17/140) differs in 1 samples @04:14:54, or (12/140) differs in 1 samples @04:14:54
10 | (137/140) Accurately ripped
11 | (137/140) Accurately ripped
12 | (136/140) Accurately ripped
13 | (133/140) Accurately ripped
14 | (135/140) Accurately ripped
15 | (136/140) Accurately ripped
16 | (135/140) Accurately ripped
17 | (136/140) Accurately ripped
18 | (117/140) Accurately ripped, or (17/140) differs in 12 samples @02:27:13
19 | (132/140) Accurately ripped
[AccurateRip ID: 00364fb9-02feceb5-f512a413] found.
Track [ CRC | V2 ] Status
01 [18f4a186|f74744de] (043+041/173) Accurately ripped
02 [98af6df1|40871857] (044+042/174) Accurately ripped
03 [4d548dcd|908e5919] (043+042/172) Accurately ripped
04 [bdc4b9ac|922f017f] (043+042/172) Accurately ripped
05 [56e8d2e3|2f4e569c] (044+042/173) Accurately ripped
06 [8e256de8|3dcdaa31] (045+042/174) Accurately ripped
07 [406d0ca1|b913bf7a] (043+042/172) Accurately ripped
08 [be47492b|d0afae71] (043+042/172) Accurately ripped
09 [2d464243|4930783f] (042+042/171) Accurately ripped
10 [875b07ef|1cae78ea] (041+042/170) Accurately ripped
11 [de141a4f|ee07153e] (042+042/171) Accurately ripped
12 [7cac0c4c|1d0293bd] (043+041/172) Accurately ripped
13 [fcbd1ab7|b046d8d4] (041+041/170) Accurately ripped
14 [6c8f982c|86de6f4b] (043+041/172) Accurately ripped
15 [1b01773c|5165b83a] (043+042/172) Accurately ripped
16 [3abd7697|f18c5707] (042+042/170) Accurately ripped
17 [d732df2c|817e3400] (041+042/169) Accurately ripped
18 [3b976b57|a048f414] (042+042/169) Accurately ripped
19 [b88ff65c|fa60aee3] (039+041/154) Accurately ripped
Offsetted by -762:
01 [2e33fffa] (009/173) Accurately ripped
02 [78fb4e39] (009/174) Accurately ripped
03 [c3e3ca8e] (009/172) Accurately ripped
04 [601584cd] (009/172) Accurately ripped
05 [beccaaa3] (009/173) Accurately ripped
06 [b1a9f844] (009/174) Accurately ripped
07 [211e05ed] (009/172) Accurately ripped
08 [e75a222f] (009/172) Accurately ripped
09 [4a7d8631] (009/171) Accurately ripped
10 [be14fec9] (009/170) Accurately ripped
11 [db9d6447] (009/171) Accurately ripped
12 [a14e9c2c] (009/172) Accurately ripped
13 [f6b99df1] (009/170) Accurately ripped
14 [dec67886] (009/172) Accurately ripped
15 [8b1ec7fa] (009/172) Accurately ripped
16 [3d3a6fff] (009/170) Accurately ripped
17 [438cedc4] (009/169) Accurately ripped
18 [7e162359] (009/169) Accurately ripped
19 [6769f031] (009/154) Accurately ripped
Offsetted by -664:
01 [67f164b6] (006/173) Accurately ripped
02 [c5a03ed1] (006/174) Accurately ripped
03 [d2e003da] (006/172) Accurately ripped
04 [f9e6ce33] (006/172) Accurately ripped
05 [fd5d63e3] (006/173) Accurately ripped
06 [f655bb78] (006/174) Accurately ripped
07 [07fe3cc8] (006/172) Accurately ripped
08 [6f62d144] (006/172) Accurately ripped
09 [a1764f7d] (006/171) Accurately ripped
10 [24e26c45] (006/170) Accurately ripped
11 [6857b11e] (006/171) Accurately ripped
12 [0ea453cd] (006/172) Accurately ripped
13 [5b9d2c4f] (006/170) Accurately ripped
14 [e99e7d44] (006/172) Accurately ripped
15 [cf58d3c4] (006/172) Accurately ripped
16 [66912af7] (006/170) Accurately ripped
17 [4adc276b] (006/169) Accurately ripped
18 [3421fc5c] (006/169) Accurately ripped
19 [22a62095] (006/154) Accurately ripped
Offsetted by 646:
01 [f8d514fa] (008/173) Accurately ripped
02 [d5d49039] (008/174) Accurately ripped
03 [6dfb87ab] (008/172) Accurately ripped
04 [97bcb4d4] (008/172) Accurately ripped
05 [d9351aa3] (008/173) Accurately ripped
06 [ea52f744] (008/174) Accurately ripped
07 [c4366c3a] (008/172) Accurately ripped
08 [cd128eca] (008/172) Accurately ripped
09 [2bd796ec] (008/171) Accurately ripped
10 [4e13c32e] (008/170) Accurately ripped
11 [e9093f4d] (008/171) Accurately ripped
12 [7f215b56] (008/172) Accurately ripped
13 [3cf72871] (008/170) Accurately ripped
14 [1c880b06] (008/172) Accurately ripped
15 [068a8b7a] (008/172) Accurately ripped
16 [89eeb9ff] (008/170) Accurately ripped
17 [965775c8] (008/169) Accurately ripped
18 [9dce4f8d] (008/169) Accurately ripped
19 [9da33c47] (006/154) Accurately ripped
Offsetted by 1337:
01 [638c7fd4] (019/173) Accurately ripped
02 [09c2d29d] (018/174) Accurately ripped
03 [af404dc3] (018/172) Accurately ripped
04 [d36c8b01] (018/172) Accurately ripped
05 [f59f4483] (018/173) Accurately ripped
06 [5b95e752] (019/174) Accurately ripped
07 [fbea2d67] (018/172) Accurately ripped
08 [aa18ee91] (000/172) No match (V2 was not tested)
09 [da371ae3] (000/171) No match (V2 was not tested)
10 [5543af83] (018/170) Accurately ripped
11 [074e0ad4] (019/171) Accurately ripped
12 [caabfdfb] (018/172) Accurately ripped
13 [ef6fe7de] (018/170) Accurately ripped
14 [dbee2203] (018/172) Accurately ripped
15 [e26285c9] (018/172) Accurately ripped
16 [a59391f3] (018/170) Accurately ripped
17 [51b58f1f] (017/169) Accurately ripped
18 [d3bbb7a9] (000/169) No match (V2 was not tested)
19 [456b09aa] (011/154) Accurately ripped

Track Peak [ CRC32 ] [W/O NULL] [ LOG ]
– 98,8 [B088A81C] [CE1E808A] CRC32
01 94,6 [D1B67965] [46A0A83B]
02 94,6 [15E1EE94] [BE870514]
03 94,6 [5541D541] [DD52C3EF]
04 94,6 [F8BB5A4F] [9508E593]
05 97,2 [30471A9F] [EDE7D29E]
06 94,6 [294D757B] [4F985644]
07 94,6 [692EE010] [D921E939]
08 97,2 [724E18DF] [60B63C3E]
09 97,2 [1C02C3A5] [D55464EB]
10 97,2 [6DD3602C] [91A39492]
11 94,6 [FE9757C9] [2ACC6651]
12 94,6 [3C3594C1] [65BCC6DD]
13 94,6 [00881CEF] [9B4E8663]
14 97,2 [6FEFEAA5] [04007F2D]
15 97,2 [BD5886E3] [CFAA37BC]
16 97,2 [75B51898] [33208A65]
17 97,2 [FBEA7353] [6BF6A5C6]
18 97,2 [1DFC7FB4] [470EB3F5]
19 98,8 [0E237C8A] [8D0B1733]

foobar2000 1.2 / Dynamic Range Meter 1.1.1
log date: 2018-06-14 16:59:35

––––––––––––––––––––––––––––––––––––––––
Analyzed: Faith No More / This Is It: The Best Of Faith No More
––––––––––––––––––––––––––––––––––––––––

DR Peak RMS Duration Track
––––––––––––––––––––––––––––––––––––––––
DR8 -0.48 dB -9.91 dB 3:18 01-Arabian Disco
DR10 -0.48 dB -11.69 dB 4:03 02-We Care A Lot (Slash Version)
DR10 -0.48 dB -12.21 dB 4:46 03-Anne's Song
DR8 -0.48 dB -10.26 dB 1:34 04-Introduce Yourself
DR8 -0.24 dB -9.75 dB 3:22 05-From Out Of Nowhere
DR9 -0.48 dB -10.83 dB 4:54 06-Epic
DR9 -0.48 dB -11.65 dB 5:14 07-Falling To Pieces
DR9 -0.24 dB -11.24 dB 7:47 08-War Pigs
DR8 -0.24 dB -9.91 dB 5:14 09-The Cowboy Song
DR9 -0.24 dB -10.53 dB 2:46 10-As The Worm Turns (Live)
DR8 -0.48 dB -10.43 dB 4:21 11-Midlife Crisis
DR8 -0.48 dB -9.96 dB 4:57 12-A Small Victory
DR7 -0.48 dB -9.27 dB 3:42 13-Be Aggressive
DR10 -0.24 dB -12.51 dB 3:09 14-Easy
DR8 -0.24 dB -9.51 dB 3:05 15-Digging The Grave
DR9 -0.24 dB -11.06 dB 4:54 16-Evidence
DR7 -0.24 dB -9.74 dB 4:21 17-Last Cup Of Sorrow
DR8 -0.24 dB -10.32 dB 3:39 18-Ashes To Ashes
DR9 -0.10 dB -10.82 dB 4:25 19-The Perfect Crime
––––––––––––––––––––––––––––––––––––––––

Number of tracks: 19
Official DR value: DR9

Samplerate: 44100 Hz
Channels: 2
Bits per sample: 16
Bitrate: 995 kbps
Codec: FLAC
================================================================================

Faith No More - This Is It: The Best of Faith No More (2003)

Faith No More - This Is It: The Best of Faith No More (2003)