Subcategories

Famous Composers Premium Edition (Boxset) (2007)

Posted By: itsme89
Famous Composers Premium Edition (Boxset) (2007)

Famous Composers Premium Edition (Boxset) (2007)
EAC Rip | FLAC (tracks + cue + log) | Covers(box) | 40 CDs
Genre: Classical | Label: Mri Associated | 8.9 GB (RAR 4% Rec.) | MU/HF/FS

A journey through musical history. Enjoy the works of 40 famous composers compiled on 40 CDs. Contains works by Bach, Beethoven, Brahms, Bruckner, Chopin, Debussy, Dvorak, Grieg, Handel, Haydn, Mahler, Mozart, Puccini, Rossini, Strauss, Tchaikovsky, Verdi, Vivaldi, Wagner and many more.

Review :Great little box set, the packaging that is, the music sounds a bit low budget. At least, I have a preview of some of these composers' work. I would recommend it for beginners and for public libraries to obtain

Tracklisting:

CD 1: Isaac Albeniz: Iberia
CD 2: J. S. Bach: Violin Concertos

CD 3: Ludwig van Beethoven: Famous Overtures
CD 4: Hector Berlioz: Symphonie Fantastique

CD 5: Georges Bizet: L Arlesienne/Carmen Suites
CD 6: Johannes Brahms: Hungarian Dances

CD 7: Max Bruch: Double Concerto and other works
CD 8: Anton Bruckner: Symphony no. 9

CD 9: F Chopin: Nocturnes / Impromptus /Waltzes
CD 10: Arcangelo Corelli: Concerti grossi

CD 11: C.Debussy: Suite Bergamasque/Children s Corner
CD 12: Francois Devienne: Flute Concertos

CD 13: Anton Dvorak: Symphony no.8/Serenade
CD 14: C sar Franck: Symphony D minor

CD 15: C.W. Gluck: Various Sonatas
CD 16: Edvard Grieg: Peer Gynt Suites/Moods

CD 17: G.F. Haendel: Wathermusic Suites a.o. works
CD 18: Joseph Haydn: String Quartets

CD 19: F. Liszt: Symphonic Poems/Hungarian Rhapsody
CD 20: Gustav Mahler: Symphony no. 1

CD 21: F. Mendelssohn-Bartholdy: Symphonies nos.4, 5
CD 22: Claudio Monteverdi: Madrigals

CD 23: W.A. Mozart: Little Night Music/String Quartets
CD 24: Giacomo Puccini: Gianni Schicci

CD 25: Max Reger: Mozart Variations/Romantic Suite
CD 26: Nikolai Rimsky-Korsakoff: Sheherazade

CD 27: Gioacchino Rossini: Sonata a quattro a.o. works
CD 28: Camille Saint-Saens: Carnival of the Animals

CD 29: Franz Schubert: The Trout/Rosamunde Quartet
CD 30: R. Schumann: Piano Sonata/Ges nge d. Fr he

CD 31: Heinrich Schuetz: St. Matthew Passion
CD 32: Alexander Scriabin: Po mes/Piano Sonata

CD 33: Friedrich Smetana: My country
CD 34: Johann Strau: Famous Waltzes a.o. works

CD 35: G.P. Telemann: Tafelmusik/Suite for strings
CD 36: P.I. Tchaikovsky: Nutcracker/Swan Lake Suites

CD 37: Giuseppe Verdi: Famous Overtures
CD 38: Antonio Vivaldi: The Four Seasons

CD 39: Richard Wagner: Famous Overtures
CD 40: Carl Maria von Weber: Clarinet Concertos


Famous Composers Premium Edition (Boxset) (2007)

Famous Composers Premium Edition (Boxset) (2007)

Famous Composers Premium Edition (Boxset) (2007)

Famous Composers Premium Edition (Boxset) (2007)



CUERipper v2.0.9 Copyright (C) 2008-10 Gregory S. Chudov

EAC extraction logfile from 28. July 2010, 18:57

Alexander Scriabin / Famous Piano Works

Used drive : HL-DT-ST DVD-RAM GH22NS30 Adapter: 1 ID: 0

Read mode : Secure
Utilize accurate stream : Yes
Defeat audio cache : Yes
Make use of C2 pointers : No

Read offset correction : 102
Overread into Lead-In and Lead-Out : No
Fill up missing offset samples with silence : Yes
Delete leading and trailing silent blocks : No
Null samples used in CRC calculations : Yes
Used interface : Native Win32 interface for Win NT & 2000
Gap handling : Not detected, thus appended to previous track

Used output format : Internal WAV Routines
Sample format : 44.100 Hz; 16 Bit; Stereo


TOC of the extracted CD

Track | Start | Length | Start sector | End sector
––––––––––––––––––––––––––––-
1 | 0:00.00 | 18:18.07 | 0 | 82356
2 | 18:18.07 | 2:16.30 | 82357 | 92586
3 | 20:34.37 | 1:16.00 | 92587 | 98286
4 | 21:50.37 | 3:13.13 | 98287 | 112774
5 | 25:03.50 | 5:14.50 | 112775 | 136374
6 | 30:18.25 | 1:08.37 | 136375 | 141511
7 | 31:26.62 | 3:02.18 | 141512 | 155179
8 | 34:29.05 | 1:33.45 | 155180 | 162199
9 | 36:02.50 | 7:13.57 | 162200 | 194731
10 | 43:16.32 | 6:54.68 | 194732 | 225849


Track 1

Filename D:\My Music\Alexander Scriabin\Famous Piano Works\01. Sonata.wav

Pre-gap length 0:00:02.00

Peak level 97.2 %
Track quality 100.0 %
Test CRC A21A65F2
Copy CRC A21A65F2
Track not present in AccurateRip database
Copy OK

Track 2

Filename D:\My Music\Alexander Scriabin\Famous Piano Works\02. Poemes Op. 69 - No. 1.wav

Peak level 46.9 %
Track quality 100.0 %
Test CRC 97C1148E
Copy CRC 97C1148E
Track not present in AccurateRip database
Copy OK

Track 3

Filename D:\My Music\Alexander Scriabin\Famous Piano Works\03. Poemes Op. 69 - No. 2.wav

Peak level 81.5 %
Track quality 100.0 %
Test CRC CE6BE8CA
Copy CRC CE6BE8CA
Track not present in AccurateRip database
Copy OK

Track 4

Filename D:\My Music\Alexander Scriabin\Famous Piano Works\04. Poeme Tragique.wav

Peak level 96.4 %
Track quality 100.0 %
Test CRC D2A06468
Copy CRC D2A06468
Track not present in AccurateRip database
Copy OK

Track 5

Filename D:\My Music\Alexander Scriabin\Famous Piano Works\05. Poeme Vers La Flamme.wav

Peak level 73.3 %
Track quality 100.0 %
Test CRC 00197D54
Copy CRC 00197D54
Track not present in AccurateRip database
Copy OK

Track 6

Filename D:\My Music\Alexander Scriabin\Famous Piano Works\06. Poeme Aile Op. 51 - No. 3.wav

Peak level 65.3 %
Track quality 100.0 %
Test CRC F61B7BE1
Copy CRC F61B7BE1
Track not present in AccurateRip database
Copy OK

Track 7

Filename D:\My Music\Alexander Scriabin\Famous Piano Works\07. Poemes Op. 32 - No. 1.wav

Peak level 59.7 %
Track quality 100.0 %
Test CRC A3BE9A81
Copy CRC A3BE9A81
Track not present in AccurateRip database
Copy OK

Track 8

Filename D:\My Music\Alexander Scriabin\Famous Piano Works\08. Poemes Op. 32 - No. 2.wav

Peak level 72.5 %
Track quality 100.0 %
Test CRC DFBB263F
Copy CRC DFBB263F
Track not present in AccurateRip database
Copy OK

Track 9

Filename D:\My Music\Alexander Scriabin\Famous Piano Works\09. Poeme Nocturne.wav

Peak level 73.1 %
Track quality 100.0 %
Test CRC 44F23BD8
Copy CRC 44F23BD8
Track not present in AccurateRip database
Copy OK

Track 10

Filename D:\My Music\Alexander Scriabin\Famous Piano Works\10. Poeme Satanique.wav

Peak level 78.6 %
Track quality 100.0 %
Test CRC 93023D96
Copy CRC 93023D96
Track not present in AccurateRip database
Copy OK


None of the tracks are present in the AccurateRip database

No errors occurred

End of status report


Log (40CDs)

http://hotfile.com/dl/63748587/d2687ea/FaCoPeEd_log.rar.html

http://www.megaupload.com/?d=JLYF6MJL

http://www.fileserve.com/file/V2HcqP5/FaCoPeEd_log.rar