Subcategories

Fancy - 30 Years: The New Best Of Fancy (2018)

Posted By: popsakov
Fancy - 30 Years: The New Best Of Fancy (2018)

Fancy - 30 Years: The New Best Of Fancy (2018)
EAC Rip | FLAC (Img) + Cue + Log ~ 592 Mb | MP3 CBR320 ~ 187 Mb
Scans Included (JPG, 300 dpi) | RAR 5% Recovery
Euro-Disco, Euro-Dance | Sony Music / Jupiter Records #19075819432

Fancy (real name Manfred Alois Segieth) is a German Italo disco singer who was popular in the mid to late 1980s. The Spanish-German producer, hit-songwriter and pop singer, starts a successful international career in 1984 with the production sung by him, the worldwide disco classic hit "Slice Me Nice", makes it with his second hit "Chinese Eyes" onto 2nd place of the US Billboard Dance Charts and is in the Top 10 on the USA Billboard for 1985 with "Chinese Eyes" and "Come Inside".Fancy had a number 1 in Spain with "Bolero" and, for instance, from the mid 80s in Germany with 9 of his singles - in a row - he landed in the Top 10 or Top 20 in the Media ControlSingles charts. His biggest hit "Flames Of Love" has been heard worldwide since 1988.

Fancy is the remix producer of: "Mind Is The Magic", Michael Jackson, "West End Girls" & "One More Chance", Pet Shop Boys. At the age of 70, Fancy surpassed the Scorpions' Guinness record (2010: highest pop concert, La Paz, Bolivia) on July 16 2016 and on March 17 2017 in La Paz in the stadium and high above La Paz in El Alto at over 4000 m elevation with two open-air shows.

***************

Fancy - 30 Years: The New Best Of Fancy (2018)

Track List:

01. Flames of Love - Radio Version [3:30]
02. Slice Me Nice [4:07]
03. Come Back and Break My Heart - Radio Mix [4:03]
04. We Can Move a Mountain - Single Version [3:50]
05. When Guardian Angels Cry [3:58]
06. Magic of Your Mind [3:00]
07. Bolero [4:03]
08. Cirque De La Lune [3:25]
09. Everlasting Dance [4:04]
10. Chinese Eyes [3:52]
11. Deep in My Heart [2:54]
12. Lady of Ice [4:03]
13. Promised Land [3:55]
14. How Do You Feel Right Now? [3:55]
15. When Fancy Is Crying [3:45]
16. Running Man [3:08]
17. Fools Cry [3:52]
18. D.I.S.C.O. (Lust For Life) [3:30]
19. Try My Love Again [4:26]
20. Flames of Love '98 - MC's Radio Mix [3:44]

Exact Audio Copy V1.1 from 23. June 2015

EAC extraction logfile from 19. May 2018, 7:47

Fancy / 30 Years - The New Best Of

Used drive : TSSTcorpDVDWBD SH-B123L Adapter: 0 ID: 4

Read mode : Secure
Utilize accurate stream : Yes
Defeat audio cache : Yes
Make use of C2 pointers : No

Read offset correction : 6
Overread into Lead-In and Lead-Out : No
Fill up missing offset samples with silence : Yes
Delete leading and trailing silent blocks : No
Null samples used in CRC calculations : Yes
Used interface : Installed external ASPI interface

Used output format : User Defined Encoder
Selected bitrate : 768 kBit/s
Quality : High
Add ID3 tag : No
Command line compressor : C:\Program Files (x86)\Exact Audio Copy\FLAC\FLAC.EXE
Additional command line options : -6 -V -T "ARTIST=%artist%" -T "TITLE=%title%" -T "ALBUM=%albumtitle%" -T "DATE=%year%" -T "TRACKNUMBER=%tracknr%" -T "GENRE=%genre%" -T "COMMENT=%comment%" -T "BAND=%albuminterpret%" -T "ALBUMARTIST=%albuminterpret%" -T "COMPOSER=%composer%" %haslyrics%–tag-from-file=LYRICS="%lyricsfile%"%haslyrics% -T "DISCNUMBER=%cdnumber%" -T "TOTALDISCS=%totalcds%" -T "TOTALTRACKS=%numtracks%" %hascover%–picture="%coverfile%"%hascover% %source% -o %dest%


TOC of the extracted CD

Track | Start | Length | Start sector | End sector
––––––––––––––––––––––––––––-
1 | 0:00.00 | 3:29.43 | 0 | 15717
2 | 3:29.43 | 4:07.03 | 15718 | 34245
3 | 7:36.46 | 4:02.45 | 34246 | 52440
4 | 11:39.16 | 3:50.29 | 52441 | 69719
5 | 15:29.45 | 3:58.04 | 69720 | 87573
6 | 19:27.49 | 3:00.30 | 87574 | 101103
7 | 22:28.04 | 4:02.42 | 101104 | 119295
8 | 26:30.46 | 3:25.30 | 119296 | 134700
9 | 29:56.01 | 4:03.57 | 134701 | 152982
10 | 33:59.58 | 3:52.34 | 152983 | 170416
11 | 37:52.17 | 2:54.11 | 170417 | 183477
12 | 40:46.28 | 4:03.15 | 183478 | 201717
13 | 44:49.43 | 3:55.34 | 201718 | 219376
14 | 48:45.02 | 3:54.62 | 219377 | 236988
15 | 52:39.64 | 3:45.25 | 236989 | 253888
16 | 56:25.14 | 3:07.53 | 253889 | 267966
17 | 59:32.67 | 3:52.13 | 267967 | 285379
18 | 63:25.05 | 3:30.23 | 285380 | 301152
19 | 66:55.28 | 4:25.51 | 301153 | 321078
20 | 71:21.04 | 3:43.44 | 321079 | 337847


Range status and errors

Selected range

Filename E:\MUSIC\Fancy - 30 Years - The New Best Of.wav

Peak level 99.8 %
Extraction speed 3.8 X
Range quality 100.0 %
Test CRC 43DF6E55
Copy CRC 43DF6E55
Copy OK

No errors occurred


AccurateRip summary

Track 1 not present in database
Track 2 not present in database
Track 3 not present in database
Track 4 not present in database
Track 5 not present in database
Track 6 not present in database
Track 7 not present in database
Track 8 not present in database
Track 9 not present in database
Track 10 not present in database
Track 11 not present in database
Track 12 not present in database
Track 13 not present in database
Track 14 not present in database
Track 15 not present in database
Track 16 not present in database
Track 17 not present in database
Track 18 not present in database
Track 19 not present in database
Track 20 not present in database

None of the tracks are present in the AccurateRip database

End of status report

==== Log checksum 665A09BE012EAA15B7A1D0A1DE4169B4F75553C678F519DD104874CCDAC16112 ====

foobar2000 1.3.16 / Dynamic Range Meter 1.1.1
log date: 2018-05-24 12:24:03

––––––––––––––––––––––––––––––––––––––––
Analyzed: Fancy / 30 Years - The New Best Of
––––––––––––––––––––––––––––––––––––––––

DR Peak RMS Duration Track
––––––––––––––––––––––––––––––––––––––––
DR7 -0.37 dB -8.04 dB 3:30 01-Flames of Love - Radio Version
DR8 -0.08 dB -9.71 dB 4:07 02-Slice Me Nice
DR7 -0.03 dB -7.93 dB 4:03 03-Come Back and Break My Heart - Radio Mix
DR7 -0.08 dB -8.60 dB 3:50 04-We Can Move a Mountain - Single Version
DR7 -0.08 dB -8.21 dB 3:58 05-When Guardian Angels Cry
DR8 -0.08 dB -9.86 dB 3:00 06-Magic of Your Mind
DR7 -0.58 dB -7.99 dB 4:03 07-Bolero
DR7 -0.08 dB -8.75 dB 3:25 08-Cirque De La Lune
DR7 -0.08 dB -8.16 dB 4:04 09-Everlasting Dance
DR8 -0.08 dB -9.00 dB 3:52 10-Chinese Eyes
DR7 -0.07 dB -8.74 dB 2:54 11-Deep in My Heart
DR8 -0.06 dB -8.51 dB 4:03 12-Lady of Ice
DR8 -0.02 dB -9.90 dB 3:55 13-Promised Land
DR7 -0.04 dB -8.81 dB 3:55 14-How Do You Feel Right Now?
DR8 -0.08 dB -9.18 dB 3:45 15-When Fancy Is Crying
DR7 -0.08 dB -8.40 dB 3:08 16-Running Man
DR8 -0.03 dB -8.43 dB 3:52 17-Fools Cry
DR7 -0.08 dB -8.56 dB 3:30 18-D.I.S.C.O. (Lust For Life)
DR7 -0.06 dB -8.91 dB 4:26 19-Try My Love Again
DR7 -0.08 dB -8.56 dB 3:44 20-Flames of Love '98 - MC's Radio Mix
––––––––––––––––––––––––––––––––––––––––

Number of tracks: 20
Official DR value: DR7

Samplerate: 44100 Hz
Channels: 2
Bits per sample: 16
Bitrate: 1039 kbps
Codec: FLAC
================================================================================

[CUETools log; Date: 24.05.2018 12:24:16; Version: 2.1.6]
[CTDB TOCID: XJ3.hahZmSHV.3pjxxyjdLiYVh4-] found.
Track | CTDB Status
1 | (2/2) Accurately ripped
2 | (2/2) Accurately ripped
3 | (2/2) Accurately ripped
4 | (2/2) Accurately ripped
5 | (2/2) Accurately ripped
6 | (2/2) Accurately ripped
7 | (2/2) Accurately ripped
8 | (2/2) Accurately ripped
9 | (2/2) Accurately ripped
10 | (2/2) Accurately ripped
11 | (2/2) Accurately ripped
12 | (2/2) Accurately ripped
13 | (2/2) Accurately ripped
14 | (2/2) Accurately ripped
15 | (2/2) Accurately ripped
16 | (2/2) Accurately ripped
17 | (2/2) Accurately ripped
18 | (2/2) Accurately ripped
19 | (2/2) Accurately ripped
20 | (2/2) Accurately ripped
[AccurateRip ID: 00361fc6-031889ca-21119814] disk not present in database.

Track Peak [ CRC32 ] [W/O NULL] [ LOG ]
– 99,8 [43DF6E55] [E63BEF21] CRC32
01 95,8 [392EA03A] [D2672F8E]
02 99,0 [B6958CD2] [378F35BE]
03 99,6 [6B07832E] [AAA44CD3]
04 99,0 [404AFEBE] [88CF120D]
05 99,0 [9E914C82] [4E5BEC3F]
06 99,0 [05A88A50] [4998EECC]
07 93,5 [913E0BA9] [A8169780]
08 99,0 [8086E615] [3219CEBE]
09 99,0 [C4518664] [F604B7BE]
10 99,0 [22B69722] [FB2072FF]
11 99,2 [BA8CA737] [F172A05C]
12 99,2 [78A59F71] [2FB0622F]
13 99,8 [04B41E1C] [8696A25F]
14 99,5 [DFB0E109] [D5823D1C]
15 99,0 [962CE550] [92D7E983]
16 99,0 [14AE2FD0] [F4313260]
17 99,6 [6E2E234B] [E225A425]
18 99,0 [9BAF3E2D] [0C534958]
19 99,2 [B33DA104] [08F4A5BC]
20 99,0 [00030C59] [5E7BE66B]

Fancy - 30 Years: The New Best Of Fancy (2018)

All thanks go to RD

>>> My Blog <<<

Download from icerbox.com: