Subcategories

Fazil Say - 1001 Nights in the Harem (2008)

Posted By: tirexiss
Fazil Say - 1001 Nights in the Harem (2008)

Fazil Say - 1001 Nights in the Harem (2008)
EAC | FLAC (image+.cue, log) | Covers Included | 01:02:00 | 298 MB
Genre: Classical | Label: Naive | Catalog: V 5147

Fazil Say first came to international attention as a pianist, but he used that career as a springboard for launching his own compositions, and he has become widely recognized in both fields. This release from Naïve includes a fascinating assortment of his works that draw on his background in the Western classical tradition, his Turkish heritage, and his interest in jazz. His 2008 Violin Concerto, subtitled "1001 Nights in the Harem," skillfully brings the harmonic language, modal melodies, and textures of traditional Turkish music to the format of the concerto. Its sound is exotic to Western ears; it begins with a propulsively accented drumbeat in a meter of 11/8, folk-influenced instrumental textures, and a sinuous, slithering violin line. Say's inventive treatment of the various influences is thoroughly engaging; this is an unusual violin concerto, but it's so strongly appealing that it's easy to imagine its making its way into the contemporary repertory. Soloist Patricia Kopatchinskaja has a somewhat small tone, but she stylishly captures the concerto's sensuous mood. In an odd cultural juxtaposition, Say uses Mozart's Rondo alla Turca not to delve into the music's Turkish roots, but as the basis for a cute jazz improvisation. He brings a similar conventional approach to the Gershwin tune in his Summertime Variations. Say takes the first movement of the Mozart Piano Sonata, K. 331, (of which the Rondo alla Turca is the last movement) as the foundation for the Patara Ballet, a colorful, hypnotic quartet for soprano, ney (a traditional Turkish wind instrument), piano, and percussion. The disc makes an excellent introduction to an intriguing composer who brings a fresh and unique perspective to the new music scene.

Fazil Say - 1001 Nights in the Harem (2008)

Track List:

Violin Concerto '1001 Nights in the Harem'
1. I. Allegro
2. II. Allegro assai
3. III. Andantino
4. IV.
Patricia Kopachinskaya, violin
Luzerner Sinfonieorchester
John Axelrod

5. Summertime Variations
Fasil Say, piano
6. Patara Ballet
Burcu Soyev, soprano
Aykut Köselerli, percussion
Celalettin Biçer, ney

7. Alla Turca Jazz, Fantasia on the Rondo from the Piano Sonata in A major K331 by Mozart
Fasil Say, piano

Exact Audio Copy V1.0 beta 1 from 15. November 2010

EAC extraction logfile from 1. March 2014, 0:36

Fazil Say / 1001 Nights in the Harem

Used drive : Optiarc DVD RW AD-7203A Adapter: 4 ID: 1

Read mode : Secure
Utilize accurate stream : Yes
Defeat audio cache : Yes
Make use of C2 pointers : No

Read offset correction : 48
Overread into Lead-In and Lead-Out : No
Fill up missing offset samples with silence : Yes
Delete leading and trailing silent blocks : No
Null samples used in CRC calculations : Yes
Used interface : Native Win32 interface for Win NT & 2000

Used output format : User Defined Encoder
Selected bitrate : 128 kBit/s
Quality : High
Add ID3 tag : No
Command line compressor : C:\Program Files\FLAC\flac.exe
Additional command line options : -T "COMMENT=Ripped by GFox" -8 -V %s


TOC of the extracted CD

Track | Start | Length | Start sector | End sector
––––––––––––––––––––––––––––-
1 | 0:00.00 | 7:06.60 | 0 | 32009
2 | 7:06.60 | 6:26.56 | 32010 | 61015
3 | 13:33.41 | 8:39.07 | 61016 | 99947
4 | 22:12.48 | 6:26.33 | 99948 | 128930
5 | 28:39.06 | 5:28.63 | 128931 | 153593
6 | 34:07.69 | 25:57.53 | 153594 | 270421
7 | 60:05.47 | 1:55.14 | 270422 | 279060


Range status and errors

Selected range

Filename D:\EAC\Fazil Say - 1001 Nights in the Harem.wav

Peak level 94.3 %
Extraction speed 0.0 X
Range quality 100.0 %
Test CRC F2352C87
Copy CRC F2352C87
Copy OK

No errors occurred


AccurateRip summary

Track 1 accurately ripped (confidence 10) [0807265F]
Track 2 accurately ripped (confidence 10) [C443A1F3]
Track 3 accurately ripped (confidence 10) [4C9377A2]
Track 4 accurately ripped (confidence 10) [A7F7FB8E]
Track 5 accurately ripped (confidence 10) [A0E2E74E]
Track 6 accurately ripped (confidence 10) [B5F1E658]
Track 7 accurately ripped (confidence 10) [E717BA46]

All tracks accurately ripped

End of status report

==== Log checksum C85EA51FEA0C498492F3B539AB2EBA27E0EC87E84626DD654CB904A7D0AD44ED ====

[CUETools log; Date: 24.05.2018 12:29:15; Version: 2.1.5]
[CTDB TOCID: MCbqhzR_SOETVeMU.As3Eah0yhk-] found.
Track | CTDB Status
1 | (39/40) Accurately ripped
2 | (39/40) Accurately ripped
3 | (39/40) Accurately ripped
4 | (39/40) Accurately ripped
5 | (39/40) Accurately ripped
6 | (38/40) Accurately ripped
7 | (39/40) Accurately ripped
[AccurateRip ID: 000fa3d6-0060b7da-530e8807] found.
Track [ CRC | V2 ] Status
01 [0807265f|8d387213] (13+24/40) Accurately ripped
02 [c443a1f3|2b605c36] (13+24/40) Accurately ripped
03 [4c9377a2|1f103dd7] (13+24/40) Accurately ripped
04 [a7f7fb8e|39ff0d00] (13+24/40) Accurately ripped
05 [a0e2e74e|07c104c8] (13+24/40) Accurately ripped
06 [b5f1e658|b583cd6c] (13+24/40) Accurately ripped
07 [e717ba46|daddf63a] (13+24/40) Accurately ripped
Offsetted by -664:
01 [f0c29e75] (00/40) No match (V2 was not tested)
02 [0da472ed] (00/40) No match (V2 was not tested)
03 [ad009335] (00/40) No match (V2 was not tested)
04 [d8680ddb] (00/40) No match (V2 was not tested)
05 [d32563ec] (00/40) No match (V2 was not tested)
06 [88759a9c] (00/40) No match (V2 was not tested)
07 [a1a370f4] (00/40) No match (V2 was not tested)

Track Peak [ CRC32 ] [W/O NULL] [ LOG ]
– 94,3 [F2352C87] [15AE6381] CRC32
01 94,1 [68427926] [127961ED]
02 81,6 [7A33A993] [27CF9C2C]
03 94,3 [B093C3C3] [D429546F]
04 87,1 [7B72112F] [D1AE738D]
05 63,9 [D009E0AB] [D4CBB9E6]
06 50,7 [C81556A4] [20C2C798]
07 65,9 [B6136D6B] [1B7DFD1B]

Thanks to the Original ripper GFox!

Download: