Subcategories

Firefall - Greatest Hits (1992)

Posted By: Designol
Firefall - Greatest Hits (1992)

Firefall - Greatest Hits (1992)
EAC | FLAC | Image (Cue&Log) ~ 459 Mb | Mp3 (CBR320) ~ 166 Mb | Scans included
Soft Rock, Pop Rock, Country Rock | Label: Rhino | # R2 71055 | 01:09:20

Sharing a light, lush airiness with bands like Poco, America, and Air Supply, Firefall sang fluffy love songs that were weak in lyrical nutrients but abundant with softened chords and harmonies. When radio was saturated with light rock in the mid- to late-'70s, they were right in the heart of it, reaching number nine on Billboard's Top 40 with the gentle "You Are the Woman," which remained on the charts for a startling 15 weeks. Firefall's greatest hits collects all of their mellow rock favorites in one place, presenting some thin but not unlistenable soft rock tunes. Lead singer Rick Roberts pours his heart out but still manages to stir up a decent tempo with "Just Remember I Love You," their second biggest single. The blue of the Colorado skyline, the band's home state, is visioned on the soothing flow of "Break of Dawn," and a slight attractiveness is felt throughout "Strange Way," another chart single in 1978. Roberts, who replaced Gram Parsons in the Flying Burrito Brothers, and drummer Michael Clarke, a onetime Byrds member, did give Firefall a talented history within its lineup, but the music being produced contained ample amounts of schlock that soon faded as radio became tired of this shallow drivel. Sometimes harboring a country feel a la Michael Martin Murphy best heard in songs like "Someday Soon" and "It Doesn't Matter," it was evident that the band had only one direction, which was that of a folk-rock sound. Since their material never strayed from this subtle easiness, Firefall's greatest hits is their most worthwhile offering.

Review by Mike DeGagne, Allmusic.com

Firefall - Greatest Hits (1992)



Tracklist:

01. Livin' Ain't Livin' (3:51)
02. Cinderella (3:36)
03. You Are The Woman (2:43)
04. Mexico (4:19)
05. It Doesn't Matter (3:31)
06. Just Remember I Love You (3:18)
07. So Long (5:30)
08. Someday Soon (4:06)
09. Strange Way (3:26)
10. Goodbye, I Love You (4:24)
11. Sweet And Sour (3:36)
12. Love That Got Away (3:25)
13. Headed For A Fall (4:12)
14. Staying With It (3:04)
15. Break Of Dawn (3:48)
16. Always (3:48)
17. Runaway Love (3:58)
18. Run Run Away (4:45)


Exact Audio Copy V0.99 prebeta 4 from 23. January 2008

Отчёт EAC об извлечении, выполненном 26. февраля 2010, 21:27

Firefall / Greatest Hits

Дисковод: PLEXTOR DVDR PX-800A Adapter: 0 ID: 0

Режим чтения : Достоверность
Использование точного потока : Да
Отключение кэша аудио : Да
Использование указателей C2 : Нет

Коррекция смещения при чтении : 48
Способность читать области Lead-in и Lead-out : Нет
Заполнение пропущенных сэмплов тишиной : Да
Удаление блоков с тишиной в начале и конце : Нет
При вычислениях CRC использовались нулевые сэмплы : Да
Интерфейс : Встроенный Win32-интерфейс для Win NT/2000

Выходной формат : Внутренние WAV-операции
Формат сэмплов : 44.100 Гц; 16 бит; стерео


TOC извлечённого CD

Трек | Старт | Длительность | Начальный сектор | Конечный сектор
––––––––––––––––––––––––––––––––––-
1 | 0:00.32 | 3:50.50 | 32 | 17331
2 | 3:51.07 | 3:36.05 | 17332 | 33536
3 | 7:27.12 | 2:43.35 | 33537 | 45796
4 | 10:10.47 | 4:18.70 | 45797 | 65216
5 | 14:29.42 | 3:31.18 | 65217 | 81059
6 | 18:00.60 | 3:18.32 | 81060 | 95941
7 | 21:19.17 | 5:29.43 | 95942 | 120659
8 | 26:48.60 | 4:06.22 | 120660 | 139131
9 | 30:55.07 | 3:26.10 | 139132 | 154591
10 | 34:21.17 | 4:24.25 | 154592 | 174416
11 | 38:45.42 | 3:35.45 | 174417 | 190586
12 | 42:21.12 | 3:24.58 | 190587 | 205944
13 | 45:45.70 | 4:11.42 | 205945 | 224811
14 | 49:57.37 | 3:03.70 | 224812 | 238606
15 | 53:01.32 | 3:48.25 | 238607 | 255731
16 | 56:49.57 | 3:47.63 | 255732 | 272819
17 | 60:37.45 | 3:57.42 | 272820 | 290636
18 | 64:35.12 | 4:45.30 | 290637 | 312041


Характеристики диапазона извлечения и сообщения об ошибках

Выбранный диапазон

Имя файла D:\Lossless\Firefall - Greatest Hits\Firefall - Greatest Hits.wav

Пиковый уровень 100.0 %
Качество диапазона 99.9 %
CRC копии 91D2A62E
Копирование… OK

Ошибок не произошло

Конец отчёта

[CUETools log; Date: 31.05.2018 2:24:27; Version: 2.1.4]
Pregap length 00:00:32.
[CTDB TOCID: 7fjeyZYJ0Rt5.5cSnUKplf.1ak4-] found.
Track | CTDB Status
1 | (66/67) Accurately ripped
2 | (67/67) Accurately ripped
3 | (67/67) Accurately ripped
4 | (67/67) Accurately ripped
5 | (67/67) Accurately ripped
6 | (66/67) Accurately ripped
7 | (67/67) Accurately ripped
8 | (67/67) Accurately ripped
9 | (67/67) Accurately ripped
10 | (67/67) Accurately ripped
11 | (66/67) Accurately ripped
12 | (67/67) Accurately ripped
13 | (67/67) Accurately ripped
14 | (66/67) Accurately ripped
15 | (66/67) Accurately ripped
16 | (65/67) Accurately ripped
17 | (58/67) Accurately ripped, or (6/67) differs in 440 samples @01:49:32,02:10:50,02:32:37-02:32:38
18 | (56/67) Accurately ripped, or (6/67) differs in 7265 samples @00:14:53,00:22:50-00:22:51,00:45:44-00:45:45,01:22:15-01:22:16,01:22:22-01:22:23,01:22:35,01:22:55-01:22:56,01:23:00-01:23:01,01:23:21-01:23:22,01:23:28,01:30:25,01:30:38-01:30:39,01:33:74-01:34:00,01:34:20-01:34:21,01:34:26-01:34:27,01:34:67,01:35:25-01:35:26,01:35:32-01:35:33,01:35:45-01:35:46,01:35:52-01:35:53,02:15:27,02:16:53-02:16:54,02:16:73-02:16:74,02:17:19,02:17:26-02:17:27,02:17:39,02:17:59,02:45:49-02:45:50,02:45:62-02:45:63,02:45:69-02:45:70,04:43:74-04:44:00,04:45:27
[AccurateRip ID: 002c89f4-0254168b-07104012] found.
Track [ CRC | V2 ] Status
01 [8076e2eb|9fa5b5ee] (25+45/84) Accurately ripped
02 [121c5017|8f21cb4c] (26+44/85) Accurately ripped
03 [944f13f2|dceb4252] (27+46/88) Accurately ripped
04 [74ce4b42|d2baf876] (26+43/84) Accurately ripped
05 [46dbf122|94a5b4b0] (26+44/85) Accurately ripped
06 [b0903f09|97850e7f] (27+46/88) Accurately ripped
07 [e23765b2|5fdf7aa9] (26+43/84) Accurately ripped
08 [2028bc44|d4b13e45] (28+42/85) Accurately ripped
09 [1ec697a4|ea2f6ead] (26+47/88) Accurately ripped
10 [f308c879|94489c29] (26+44/85) Accurately ripped
11 [478fe00e|2bf8b784] (26+43/84) Accurately ripped
12 [0c1ccec2|2db124e7] (26+42/83) Accurately ripped
13 [8dd3bdd7|49434cf2] (26+45/86) Accurately ripped
14 [10ba3fca|3bcc7608] (26+43/84) Accurately ripped
15 [1aa091c0|f01452dc] (26+44/85) Accurately ripped
16 [9e9f086a|3b1d825d] (25+43/83) Accurately ripped
17 [b191d18b|d375233d] (25+42/82) Accurately ripped
18 [f6eb1f23|8f49bf9e] (26+42/83) Accurately ripped
Offsetted by 16:
01 [c5324cc5] (03/84) Accurately ripped
02 [6ba0a30d] (03/85) Accurately ripped
03 [1780d8b9] (03/88) Accurately ripped
04 [d4cf89f4] (03/84) Accurately ripped
05 [27a3a8b3] (03/85) Accurately ripped
06 [0d381292] (03/88) Accurately ripped
07 [69955baf] (03/84) Accurately ripped
08 [0ec226ec] (03/85) Accurately ripped
09 [b3b86a9a] (03/88) Accurately ripped
10 [0b525472] (03/85) Accurately ripped
11 [c2643d3c] (03/84) Accurately ripped
12 [ac136c0e] (03/83) Accurately ripped
13 [7db47644] (03/86) Accurately ripped
14 [ff1ae68a] (03/84) Accurately ripped
15 [dd19ad7e] (03/85) Accurately ripped
16 [f70d2dd1] (03/83) Accurately ripped
17 [11a7563b] (03/82) Accurately ripped
18 [d9f8cce0] (03/83) Accurately ripped
Offsetted by 6:
01 [a93f0a93] (00/84) No match (V2 was not tested)
02 [f7def125] (00/85) No match (V2 was not tested)
03 [e4829e00] (00/88) No match (V2 was not tested)
04 [21aa3373] (00/84) No match (V2 was not tested)
05 [5fa727e9] (00/85) No match (V2 was not tested)
06 [b9370ce2] (00/88) No match (V2 was not tested)
07 [9068fed8] (00/84) No match (V2 was not tested)
08 [f3abb12f] (00/85) No match (V2 was not tested)
09 [cc064be5] (00/88) No match (V2 was not tested)
10 [3f29f95e] (00/85) No match (V2 was not tested)
11 [2dfee58f] (00/84) No match (V2 was not tested)
12 [a7f956e3] (00/83) No match (V2 was not tested)
13 [62b1ddb3] (00/86) No match (V2 was not tested)
14 [20a61c5e] (00/84) No match (V2 was not tested)
15 [6202ba68] (00/85) No match (V2 was not tested)
16 [16365d4b] (00/83) No match (V2 was not tested)
17 [9e0a4c72] (00/82) No match (V2 was not tested)
18 [4a375f06] (00/83) No match (V2 was not tested)

Track Peak [ CRC32 ] [W/O NULL] [ LOG ]
– 100,0 [91D2A62E] [F8D7A3E6] CRC32
01 100,0 [9B567FA2] [2C22896A]
02 100,0 [4AD429A8] [4261268B]
03 100,0 [B7F86A0C] [C436FA31]
04 100,0 [5821A915] [A35ED172]
05 100,0 [8258882E] [15FFB7C4]
06 100,0 [E26146DC] [B7269B35]
07 100,0 [1E98BA6B] [85503471]
08 100,0 [F4BA2A82] [10201BFA]
09 100,0 [753AD151] [07F563A0]
10 100,0 [AC00CEDC] [19BB0C4B]
11 100,0 [C217EE22] [42A0959F]
12 100,0 [AB6C0C31] [FB5DA894]
13 100,0 [26B360FC] [903BCA60]
14 100,0 [C9A3FE75] [9CC4FC42]
15 100,0 [D8BE7017] [F51DD315]
16 100,0 [6F34857A] [686204D9]
17 100,0 [2EC83E0D] [24666C02]
18 100,0 [11487902] [2CD4091B]

foobar2000 1.2 / Dynamic Range Meter 1.1.1
log date: 2018-05-31 04:28:27

––––––––––––––––––––––––––––––––––––––––
Analyzed: Firefall / Greatest Hits
––––––––––––––––––––––––––––––––––––––––

DR Peak RMS Duration Track
––––––––––––––––––––––––––––––––––––––––
DR11 0.00 dB -13.17 dB 3:51 01-Livin' Ain't Livin'
DR12 0.00 dB -14.18 dB 3:36 02-Cinderella
DR12 0.00 dB -14.89 dB 2:43 03-You Are The Woman
DR11 0.00 dB -13.41 dB 4:19 04-Mexico
DR11 0.00 dB -12.47 dB 3:31 05-It Doesn't Matter
DR11 0.00 dB -13.96 dB 3:18 06-Just Remember I Love You
DR12 0.00 dB -14.09 dB 5:30 07-So Long
DR13 0.00 dB -16.28 dB 4:06 08-Someday Soon
DR12 0.00 dB -16.90 dB 3:26 09-Strange Way
DR12 0.00 dB -14.27 dB 4:24 10-Goodbye, I Love You
DR13 0.00 dB -15.21 dB 3:36 11-Sweet And Sour
DR13 0.00 dB -15.39 dB 3:25 12-Love That Got Away
DR14 0.00 dB -16.02 dB 4:12 13-Headed For A Fall
DR14 0.00 dB -15.58 dB 3:04 14-Staying With It
DR13 0.00 dB -15.16 dB 3:48 15-Break Of Dawn
DR12 0.00 dB -15.46 dB 3:48 16-Always
DR12 0.00 dB -13.63 dB 3:58 17-Runaway Love
DR12 0.00 dB -15.09 dB 4:45 18-Run Run Away
––––––––––––––––––––––––––––––––––––––––

Number of tracks: 18
Official DR value: DR12

Samplerate: 44100 Hz
Channels: 2
Bits per sample: 16
Bitrate: 911 kbps
Codec: FLAC
================================================================================

Firefall - Greatest Hits (1992)

Firefall - Greatest Hits (1992)

All thanks to original releaser - SerBlues

More interesting music in My Blog