Subcategories

Fish (ex-Marillion) - Raingods With Zippos (1999)

Posted By: gribovar
Fish (ex-Marillion) - Raingods With Zippos (1999)

Fish (ex-Marillion) - Raingods With Zippos (1999)
EAC Rip | WavPack (image+.cue+log) - 370 MB | MP3 CBR 320 kbps (LAME 3.93) - 128 MB | Covers - 93 MB
Genre: Progressive Rock | RAR 3% Rec. | Label: Roadrunner Records/Attic Records (RR 8677-2)

"Raingods with Zippos" is a 1999 Progressive rock album by ex-Marillion vocalist Fish. "Raingods with Zippos" is often hailed one of Fish's greatest achievements along with his 1990 debut Vigil in a Wilderness of Mirrors. While he was not involved with the production of this album, Steven Wilson, most famous for his work with Porcupine Tree, played guitar on several of the tracks.
Tracklist:
01. Tumbledown
02. Mission Statement
03. Incomplete
04. Tilted Cross
05. Faith Healer
06. Rites of Passage
07. Plague of Ghosts - Part I: Old Haunts
08. Plague of Ghosts - Part II: Digging Deep
09. Plague of Ghosts - Part III: Chocolate Frogs
10. Plague of Ghosts - Part IV: Waving at Stars
11. Plague of Ghosts - Part V: Raingod's Dancing
12. Plague of Ghosts - Part VI: Wake-Up Call (Make it Happen)

Total time: 55:40

Exact Audio Copy V0.99 prebeta 5 from 4. May 2009

EAC extraction logfile from 16. June 2010, 20:03

Fish / Raingods With Zippos

Used drive : HL-DT-STDVD-RAM GSA-H22N Adapter: 1 ID: 0

Read mode : Secure
Utilize accurate stream : Yes
Defeat audio cache : Yes
Make use of C2 pointers : No

Read offset correction : 102
Overread into Lead-In and Lead-Out : No
Fill up missing offset samples with silence : Yes
Delete leading and trailing silent blocks : No
Null samples used in CRC calculations : Yes
Used interface : Native Win32 interface for Win NT & 2000

Used output format : User Defined Encoder
Selected bitrate : 896 kBit/s
Quality : High
Add ID3 tag : No
Command line compressor : C:\Program Files\Exact Audio Copy\WavPack\wavpack.exe
Additional command line options : -hlm %s


TOC of the extracted CD

Track | Start | Length | Start sector | End sector
––––––––––––––––––––––––––––-
1 | 0:00.00 | 5:51.40 | 0 | 26364
2 | 5:51.40 | 3:59.32 | 26365 | 44321
3 | 9:50.72 | 3:43.44 | 44322 | 61090
4 | 13:34.41 | 4:18.42 | 61091 | 80482
5 | 17:53.08 | 5:00.32 | 80483 | 103014
6 | 22:53.40 | 7:41.67 | 103015 | 137656
7 | 30:35.32 | 3:12.33 | 137657 | 152089
8 | 33:47.65 | 6:48.73 | 152090 | 182762
9 | 40:36.63 | 4:04.23 | 182763 | 201085
10 | 44:41.11 | 3:12.00 | 201086 | 215485
11 | 47:53.11 | 4:16.10 | 215486 | 234695
12 | 52:09.21 | 3:31.12 | 234696 | 250532


Range status and errors

Selected range

Filename E:\ZAM\NL+\Fish\Fish - Raingods With Zippos.wav

Peak level 100.0 %
Range quality 100.0 %
Test CRC E471789E
Copy CRC E471789E
Copy OK

No errors occurred


AccurateRip summary

Track 1 cannot be verified as accurate (confidence 60) [548F9FE2], AccurateRip returned [4B35EC33]
Track 2 cannot be verified as accurate (confidence 60) [8BDC3833], AccurateRip returned [9D3D3FD7]
Track 3 cannot be verified as accurate (confidence 61) [DCC05A3E], AccurateRip returned [0F100634]
Track 4 cannot be verified as accurate (confidence 61) [B7AC21F3], AccurateRip returned [2F4F613D]
Track 5 cannot be verified as accurate (confidence 59) [AAFB112B], AccurateRip returned [76F4CA6E]
Track 6 cannot be verified as accurate (confidence 59) [5364826D], AccurateRip returned [15660F90]
Track 7 cannot be verified as accurate (confidence 58) [D9EDBA49], AccurateRip returned [A6FF8256]
Track 8 cannot be verified as accurate (confidence 59) [BE8980DA], AccurateRip returned [6C709EBF]
Track 9 cannot be verified as accurate (confidence 59) [A85C35A2], AccurateRip returned [2C25E37A]
Track 10 cannot be verified as accurate (confidence 59) [8AB1962D], AccurateRip returned [8C98D5B1]
Track 11 cannot be verified as accurate (confidence 60) [C588C26D], AccurateRip returned [73A06328]
Track 12 cannot be verified as accurate (confidence 59) [196C0A96], AccurateRip returned [20959CCF]

No tracks could be verified as accurate
You may have a different pressing from the one(s) in the database

End of status report

[Verification date: 16/06/2010 8:52:35 PM]
[Disc ID: 0019c7f3-00f0063f-ab0d0c0c]
Track [ CRC ] Status
01 [548f9fe2] (00/78) No matches
02 [8bdc3833] (00/79) No matches
03 [dcc05a3e] (00/77) No matches
04 [b7ac21f3] (00/80) No matches
05 [aafb112b] (00/78) No matches
06 [5364826d] (00/78) No matches
07 [d9edba49] (00/77) No matches
08 [be8980da] (00/77) No matches
09 [a85c35a2] (00/78) No matches
10 [8ab1962d] (00/78) No matches
11 [c588c26d] (00/79) No matches
12 [196c0a96] (00/76) No matches
Offsetted by -1247:
01 [5e21ab7a] (03/78) Accurately ripped as in pressing(s) #3
02 [25741e20] (03/79) Accurately ripped as in pressing(s) #4
03 [a1903ef8] (02/77) Partial match to pressing(s) #4
04 [e04f2a88] (03/80) Accurately ripped as in pressing(s) #4
05 [f2cadbf7] (03/78) Accurately ripped as in pressing(s) #4
06 [2a1310ac] (03/78) Accurately ripped as in pressing(s) #4
07 [be07c7b1] (03/77) Accurately ripped as in pressing(s) #4
08 [b7a44388] (03/77) Accurately ripped as in pressing(s) #3
09 [c3a92ed4] (03/78) Accurately ripped as in pressing(s) #4
10 [568d7e52] (03/78) Accurately ripped as in pressing(s) #4
11 [399c0edf] (03/79) Accurately ripped as in pressing(s) #4
12 [2ee207a5] (02/76) Accurately ripped as in pressing(s) #5
Offsetted by -1176:
01 [692fd95e] (02/78) Accurately ripped as in pressing(s) #4
02 [6eeaf3ec] (02/79) Accurately ripped as in pressing(s) #5
03 [f8d18ad5] (02/77) Accurately ripped as in pressing(s) #4
04 [9ab95a3b] (02/80) Accurately ripped as in pressing(s) #5
05 [e3d411e2] (02/78) Accurately ripped as in pressing(s) #5
06 [675949a6] (02/78) Accurately ripped as in pressing(s) #5
07 [815c3f39] (02/77) Accurately ripped as in pressing(s) #5
08 [fd4f373f] (02/77) Accurately ripped as in pressing(s) #5
09 [24875999] (02/78) Accurately ripped as in pressing(s) #5
10 [d3008256] (02/78) Accurately ripped as in pressing(s) #5
11 [f911f03e] (02/79) Accurately ripped as in pressing(s) #5
12 [66ad9048] (02/76) Accurately ripped as in pressing(s) #4
Offsetted by 12:
01 [1f98be16] (02/78) Accurately ripped as in pressing(s) #5
02 [6dfb09dd] (03/79) Accurately ripped as in pressing(s) #3
03 [7991d1f6] (03/77) Accurately ripped as in pressing(s) #3
04 [c1a01c3b] (03/80) Accurately ripped as in pressing(s) #3
05 [e8af93d9] (03/78) Accurately ripped as in pressing(s) #3
06 [0c5dd8a1] (03/78) Accurately ripped as in pressing(s) #3
07 [6eb020ce] (03/77) Accurately ripped as in pressing(s) #3
08 [7a0c0785] (02/77) Accurately ripped as in pressing(s) #4
09 [a6796716] (03/78) Accurately ripped as in pressing(s) #3
10 [cb57f254] (03/78) Accurately ripped as in pressing(s) #3
11 [c36dc212] (03/79) Accurately ripped as in pressing(s) #3
12 [e531a322] (03/76) Accurately ripped as in pressing(s) #3
Offsetted by 14:
01 [9f122be0] (11/78) Accurately ripped as in pressing(s) #2
02 [d0a21e08] (11/79) Accurately ripped as in pressing(s) #2
03 [9ad504ff] (11/77) Accurately ripped as in pressing(s) #2
04 [c51fc8eb] (11/80) Accurately ripped as in pressing(s) #2
05 [700c3373] (11/78) Accurately ripped as in pressing(s) #2
06 [8081bc5f] (11/78) Accurately ripped as in pressing(s) #2
07 [ee5ab709] (11/77) Accurately ripped as in pressing(s) #2
08 [2840eb20] (11/77) Accurately ripped as in pressing(s) #2
09 [6033d6b1] (11/78) Accurately ripped as in pressing(s) #2
10 [ba0a44a5] (11/78) Accurately ripped as in pressing(s) #2
11 [73f9ed16] (11/79) Accurately ripped as in pressing(s) #2
12 [0f83e200] (10/76) Accurately ripped as in pressing(s) #2
Offsetted by 681:
01 [4b35ec33] (60/78) Accurately ripped as in pressing(s) #1
02 [9d3d3fd7] (60/79) Accurately ripped as in pressing(s) #1
03 [0f100634] (61/77) Accurately ripped as in pressing(s) #1
04 [2f4f613d] (61/80) Accurately ripped as in pressing(s) #1
05 [76f4ca6e] (59/78) Accurately ripped as in pressing(s) #1
06 [15660f90] (59/78) Accurately ripped as in pressing(s) #1
07 [a6ff8256] (58/77) Accurately ripped as in pressing(s) #1
08 [6c709ebf] (59/77) Accurately ripped as in pressing(s) #1
09 [2c25e37a] (59/78) Accurately ripped as in pressing(s) #1
10 [8c98d5b1] (59/78) Accurately ripped as in pressing(s) #1
11 [73a06328] (60/79) Accurately ripped as in pressing(s) #1
12 [20959ccf] (59/76) Accurately ripped as in pressing(s) #1

Track [ CRC32 ] [W/O NULL]
– [E471789E] [769F3E92]
01 [38047F5D] [ADB357E0]
02 [F72E31E2] [6272B26B]
03 [7C7B673B] [E8006752]
04 [BE830C6A] [9EEE805F]
05 [72E1173A] [02CDBC06]
06 [E6D2E9EF] [92FE5B01]
07 [44285E92] [713AE454]
08 [3BC14D77] [CF0DF362]
09 [7B5F9774] [40B03E5D]
10 [93CBB929] [540C22FA]
11 [DB7965B8] [E623D912]
12 [D2FEC165] [1D0F96C3]

Thanks to Alexandre ZAM

LOSSLESS:

Filesonic.com

Hotfile.com
________________

MP3 320 kbps:

Filesonic.com

Hotfile.com
________________

Covers (93 mb):

Filesonic.com

Hotfile.com

No mirrors please