Subcategories

VA - Fiddler On The Roof (Original Broadway Cast Recording) (1964) {1986 RCA Red Seal}

Posted By: TestTickles
VA - Fiddler On The Roof (Original Broadway Cast Recording) (1964) {1986 RCA Red Seal}

VA - Fiddler On The Roof (Original Broadway Cast Recording) (1964) {1986 RCA Red Seal}
EAC Rip | FLAC with CUE and log | scans | 231 mb
MP3 CBR 320kbps | RAR | 113 mb
Genre: musical

This is the 1964 original Broadway cast album for the musical Fiddler On The Roof. This came out on the RCA/Victor label and this is taken from the 1986 CD released by RCA Red Seal and remastered by Thomas Z. Shepard, with a few tracks not on the original pressing.

VA - Fiddler On The Roof (Original Broadway Cast Recording) (1964) {1986 RCA Red Seal}

01. Zero Mostel & Chorus - Prologue/Tradition
02. Joanna Merlin, Julia Migenes & Tanya Everett - Matchmaker
03. Zero Mostel - If I Were A Rich Man
04. Zero Mostel, Maria Karnilova & Chorus - Sabbath Prayer
05. Zero Mostel, Michael Granger & Men - To Life
06. Austin Pendleton - Miracle Of Miracles
07. Zero Mostel, Maria Karnilova, Sue Babel, Carol Sawyer & Chorus - The Dream
08. Zero Mostel, Maria Karnilova & Chorus - Sunrise, Sunset
09. Orchestra - Wedding Dance
10. Bert Convy & Julia Migenes - Now I Have Everything
11. Zero Mostel & Maria Kamilova - Do You Love Me
12. Beatrice Arthur, Leonard Frey, Paul Lipson & Ensemble - The Rumor
13. Julia Migenes & Zero Mostel - Far From The Home I Love
14. Zero Mostel, Maria Karnilova, Beatrice Arthur, Michael Granger, Leonard Frey, Paul Lipson & Company - Anatevka

Album produced by George R. Marek
Associate producer: Andy Wiswell
Recorded in Webster Hall, New York City, 27 September, 1964
Recording engineer: Ernest Oelrich

Remastered for compact disc by Thomas Z. Shepard

VA - Fiddler On The Roof (Original Broadway Cast Recording) (1964) {1986 RCA Red Seal}


Exact Audio Copy V1.1 from 23. June 2015

EAC extraction logfile from 6. August 2016, 20:23

Various Artists / Fiddler On The Roof (Original Broadway Cast Recording)

Used drive : TEAC DVD-ROM DV-28SW Adapter: 1 ID: 0

Read mode : Secure
Utilize accurate stream : Yes
Defeat audio cache : Yes
Make use of C2 pointers : No

Read offset correction : 6
Overread into Lead-In and Lead-Out : No
Fill up missing offset samples with silence : Yes
Delete leading and trailing silent blocks : No
Null samples used in CRC calculations : Yes
Used interface : Native Win32 interface for Win NT & 2000
Gap handling : Appended to previous track

Used output format : Internal WAV Routines
Sample format : 44.100 Hz; 16 Bit; Stereo


TOC of the extracted CD

Track | Start | Length | Start sector | End sector
––––––––––––––––––––––––––––-
1 | 0:00.00 | 6:54.45 | 0 | 31094
2 | 6:54.45 | 3:42.38 | 31095 | 47782
3 | 10:37.08 | 4:56.57 | 47783 | 70039
4 | 15:33.65 | 2:26.48 | 70040 | 81037
5 | 18:00.38 | 4:11.47 | 81038 | 99909
6 | 22:12.10 | 2:02.08 | 99910 | 109067
7 | 24:14.18 | 6:08.30 | 109068 | 136697
8 | 30:22.48 | 3:33.50 | 136698 | 152722
9 | 33:56.23 | 2:12.15 | 152723 | 162637
10 | 36:08.38 | 2:04.32 | 162638 | 171969
11 | 38:12.70 | 3:08.65 | 171970 | 186134
12 | 41:21.60 | 1:52.25 | 186135 | 194559
13 | 43:14.10 | 3:30.08 | 194560 | 210317
14 | 46:44.18 | 3:09.57 | 210318 | 224549


Track 1

Filename C:\My Documents\My FLAC\VA - Fiddler On The Roof (Original Broadway Cast Recording) (1964) [FLAC] {1986 RCA Red Seal}\01 - Zero Mostel & Chorus - Prologue,Tradition.wav

Pre-gap length 0:00:02.00

Peak level 82.5 %
Extraction speed 3.1 X
Track quality 100.0 %
Test CRC 35F68E47
Copy CRC 35F68E47
Accurately ripped (confidence 12) [A43206CE] (AR v2)
Copy OK

Track 2

Filename C:\My Documents\My FLAC\VA - Fiddler On The Roof (Original Broadway Cast Recording) (1964) [FLAC] {1986 RCA Red Seal}\02 - Joanna Merlin, Julia Migenes & Tanya Everett - Matchmaker.wav

Peak level 51.5 %
Extraction speed 3.2 X
Track quality 100.0 %
Test CRC 30BB3678
Copy CRC 30BB3678
Accurately ripped (confidence 12) [43BF7B6C] (AR v2)
Copy OK

Track 3

Filename C:\My Documents\My FLAC\VA - Fiddler On The Roof (Original Broadway Cast Recording) (1964) [FLAC] {1986 RCA Red Seal}\03 - Zero Mostel - If I Were A Rich Man.wav

Peak level 66.7 %
Extraction speed 3.6 X
Track quality 100.0 %
Test CRC CA31DC1E
Copy CRC CA31DC1E
Accurately ripped (confidence 12) [2861458A] (AR v2)
Copy OK

Track 4

Filename C:\My Documents\My FLAC\VA - Fiddler On The Roof (Original Broadway Cast Recording) (1964) [FLAC] {1986 RCA Red Seal}\04 - Zero Mostel, Maria Karnilova & Chorus - Sabbath Prayer.wav

Pre-gap length 0:00:00.62

Peak level 59.9 %
Extraction speed 3.4 X
Track quality 100.0 %
Test CRC C2B90C50
Copy CRC C2B90C50
Accurately ripped (confidence 12) [B628877E] (AR v2)
Copy OK

Track 5

Filename C:\My Documents\My FLAC\VA - Fiddler On The Roof (Original Broadway Cast Recording) (1964) [FLAC] {1986 RCA Red Seal}\05 - Zero Mostel, Michael Granger & Men - To Life.wav

Peak level 68.9 %
Extraction speed 3.3 X
Track quality 99.9 %
Test CRC 40783D18
Copy CRC 40783D18
Accurately ripped (confidence 12) [58DD7FD2] (AR v2)
Copy OK

Track 6

Filename C:\My Documents\My FLAC\VA - Fiddler On The Roof (Original Broadway Cast Recording) (1964) [FLAC] {1986 RCA Red Seal}\06 - Austin Pendleton - Miracle Of Miracles.wav

Peak level 65.7 %
Extraction speed 3.5 X
Track quality 100.0 %
Test CRC 35F0239D
Copy CRC 35F0239D
Accurately ripped (confidence 12) [4E4810E7] (AR v2)
Copy OK

Track 7

Filename C:\My Documents\My FLAC\VA - Fiddler On The Roof (Original Broadway Cast Recording) (1964) [FLAC] {1986 RCA Red Seal}\07 - Zero Mostel, Maria Karnilova, Sue Babel, Carol Sawyer & Chorus - The Dream.wav

Pre-gap length 0:00:00.50

Peak level 76.2 %
Extraction speed 4.5 X
Track quality 100.0 %
Test CRC 91CD1E39
Copy CRC 91CD1E39
Accurately ripped (confidence 12) [666EA170] (AR v2)
Copy OK

Track 8

Filename C:\My Documents\My FLAC\VA - Fiddler On The Roof (Original Broadway Cast Recording) (1964) [FLAC] {1986 RCA Red Seal}\08 - Zero Mostel, Maria Karnilova & Chorus - Sunrise, Sunset.wav

Pre-gap length 0:00:00.30

Peak level 58.6 %
Extraction speed 4.4 X
Track quality 100.0 %
Test CRC 9BDBBD8F
Copy CRC 9BDBBD8F
Accurately ripped (confidence 12) [572A63E5] (AR v2)
Copy OK

Track 9

Filename C:\My Documents\My FLAC\VA - Fiddler On The Roof (Original Broadway Cast Recording) (1964) [FLAC] {1986 RCA Red Seal}\09 - Orchestra - Wedding Dance.wav

Peak level 79.2 %
Extraction speed 4.1 X
Track quality 100.0 %
Test CRC E5270535
Copy CRC E5270535
Accurately ripped (confidence 12) [23587FE8] (AR v2)
Copy OK

Track 10

Filename C:\My Documents\My FLAC\VA - Fiddler On The Roof (Original Broadway Cast Recording) (1964) [FLAC] {1986 RCA Red Seal}\10 - Bert Convy & Julia Migenes - Now I Have Everything.wav

Pre-gap length 0:00:00.48

Peak level 51.6 %
Extraction speed 4.1 X
Track quality 100.0 %
Test CRC F4B01BA0
Copy CRC F4B01BA0
Accurately ripped (confidence 12) [2EF4E8BC] (AR v2)
Copy OK

Track 11

Filename C:\My Documents\My FLAC\VA - Fiddler On The Roof (Original Broadway Cast Recording) (1964) [FLAC] {1986 RCA Red Seal}\11 - Zero Mostel & Maria Kamilova - Do You Love Me.wav

Pre-gap length 0:00:00.15

Peak level 30.3 %
Extraction speed 3.7 X
Track quality 99.9 %
Test CRC 8F51871E
Copy CRC 8F51871E
Accurately ripped (confidence 12) [B019CD88] (AR v2)
Copy OK

Track 12

Filename C:\My Documents\My FLAC\VA - Fiddler On The Roof (Original Broadway Cast Recording) (1964) [FLAC] {1986 RCA Red Seal}\12 - Beatrice Arthur, Leonard Frey, Paul Lipson & Ensemble - The Rumor.wav

Peak level 48.9 %
Extraction speed 4.2 X
Track quality 100.0 %
Test CRC 52DDC5D1
Copy CRC 52DDC5D1
Accurately ripped (confidence 12) [012680FC] (AR v2)
Copy OK

Track 13

Filename C:\My Documents\My FLAC\VA - Fiddler On The Roof (Original Broadway Cast Recording) (1964) [FLAC] {1986 RCA Red Seal}\13 - Julia Migenes & Zero Mostel - Far From The Home I Love.wav

Peak level 49.0 %
Extraction speed 4.9 X
Track quality 100.0 %
Test CRC AE2712DB
Copy CRC AE2712DB
Accurately ripped (confidence 12) [18BEF3AD] (AR v2)
Copy OK

Track 14

Filename C:\My Documents\My FLAC\VA - Fiddler On The Roof (Original Broadway Cast Recording) (1964) [FLAC] {1986 RCA Red Seal}\14 - Zero Mostel, Maria Karnilova, Beatrice Arthur, Michael Granger, Leonard Frey, Paul Lipson & Company - Anatevka.wav

Peak level 53.4 %
Extraction speed 4.9 X
Track quality 100.0 %
Test CRC D568C5D9
Copy CRC D568C5D9
Accurately ripped (confidence 12) [97F7115E] (AR v2)
Copy OK


All tracks accurately ripped

No errors occurred

End of status report

–– CUETools DB Plugin V2.1.6

[CTDB TOCID: j4t37VglcCt2rFJDflSUbQcqh28-] found
Submit result: j4t37VglcCt2rFJDflSUbQcqh28- has been confirmed
Track | CTDB Status
1 | (55/56) Accurately ripped
2 | (55/56) Accurately ripped
3 | (45/56) Accurately ripped, or (10/56) differs in 3 samples @02:59:26
4 | (55/56) Accurately ripped
5 | (55/56) Accurately ripped
6 | (55/56) Accurately ripped
7 | (55/56) Accurately ripped
8 | (55/56) Accurately ripped
9 | (55/56) Accurately ripped
10 | (55/56) Accurately ripped
11 | (55/56) Accurately ripped
12 | (55/56) Accurately ripped
13 | (55/56) Accurately ripped
14 | (55/56) Accurately ripped


==== Log checksum F7C1586BD8F533622659354BF269EAA1B955492FBF4FE084ACE2749100BAEEE4 ====
NITROFLARE (FLAC)
NITROFLARE (MP3)