Subcategories

Fleetwood Mac - The Very Best Of Fleetwood Mac (2002) {2009, Remastered}

Posted By: popsakov
Fleetwood Mac - The Very Best Of Fleetwood Mac (2002) {2009, Remastered}

Fleetwood Mac - The Very Best Of Fleetwood Mac (2002) {2009, Remastered}
2CD | EAC Rip | FLAC (Img) + Cue + Log ~ 973 Mb | MP3 CBR320 ~ 339 Mb
Full Scans (JPG, 600 dpi) ~ 93 Mb | RAR 5% Recovery
Soft Rock, Pop Rock, Classic Rock | Reprise Records / Rhino #8122798316

There's a certain relief that this 2009 Rhino reissue of 2002's double-disc set The Very Best of Fleetwood Mac doesn't even attempt to dabble in the early blues work of the Peter Green band, and treats the addition of Lindsey Buckingham and Stevie Nicks as ground zero. The two eras of the band don't sit well together, and it's best to isolate them, since those who want the hits don't need to hear the blues. Here, it's the prime of the platinum years, with almost all of the big songs in their original hit versions (the one real exception is a live version of "Big Love" from 1997, but most listeners aren't going to be too upset with the substitution). The biggest complaint is that chronological order would have been welcome, but the sequencing here is still nice, and all the big hits and radio staples are here, along with enough great album tracks ("Think About Me," "World Turning," "What Makes You Think You're the One") to whet the appetite for full albums for novices, who will surely find this to be a good introduction. It's not dynamic or sharply sequenced to be a truly classic collection, but it gets the job done, and it will certainly satisfy those who just need the hits, plus a little bit more for the illusion of depth.
~ Stephen Thomas Erlewine, All Music
Fleetwood Mac - The Very Best Of Fleetwood Mac (2002) {2009, Remastered}


***************

Fleetwood Mac - The Very Best Of Fleetwood Mac (2002) {2009, Remastered}

Fleetwood Mac - The Very Best Of Fleetwood Mac (2002) {2009, Remastered}

Track List CD1:

01. Monday Morning [from 'Fleetwood Mac', 1976] [0:02:45.14]
02. Dreams [from 'Rumours', 1977] [0:04:15.46]
03. You Make Loving Fun [from 'Rumours', 1977] [0:03:33.33]
04. Go Your Own Way [from 'Rumours', 1977] [0:03:40.27]
05. Rhiannon [from 'Fleetwood Mac', 1975] [0:03:46.51]
06. Say You Love Me [from 'Fleetwood Mac', 1975] [0:04:03.34]
07. I'm So Afraid [from 'The Dance', Live, 1997] [0:06:01.10]
08. Silver Springs [from 25 years - The Chain', 1992] [0:04:30.72]
09. Over My Head [from 'Fleetwood Mac', 1975] [0:03:08.43]
10. Never Going Back Again [from 'Rumours', 1977] [0:02:14.67]
11. Sara [from 'Tusk', 1979] [0:06:26.67]
12. Love In Store [from 'Mirage', 1982] [0:03:10.45]
13. Tusk [from 'Tusk', 1979] [0:03:34.54]
14. Landslide [from 'Fleetwood Mac', 1975] [0:03:17.68]
15. Songbird [from 'Rumours', 1977] [0:03:20.14]
16. Big Love [from 'The Dance', Live, 1997] [0:02:48.54]
17. Storms [from 'Tusk', 1979] [0:05:28.20]

Exact Audio Copy V1.0 beta 3 from 29. August 2011

EAC extraction logfile from 21. April 2015, 17:21

Fleetwood Mac / The Very Best Of Fleetwood Mac CD1

Used drive : ATAPI iHAS124 D Adapter: 0 ID: 2

Read mode : Secure
Utilize accurate stream : Yes
Defeat audio cache : Yes
Make use of C2 pointers : No

Read offset correction : 6
Overread into Lead-In and Lead-Out : No
Fill up missing offset samples with silence : Yes
Delete leading and trailing silent blocks : No
Null samples used in CRC calculations : Yes
Used interface : Installed external ASPI interface

Used output format : User Defined Encoder
Selected bitrate : 1024 kBit/s
Quality : High
Add ID3 tag : No
Command line compressor : C:\Program Files (x86)\Exact Audio Copy\Flac\flac.exe
Additional command line options : -6 -V -T "ARTIST=%artist%" -T "TITLE=%title%" -T "ALBUM=%albumtitle%" -T "DATE=%year%" -T "TRACKNUMBER=%tracknr%" -T "GENRE=%genre%" -T "COMMENT=%comment%" -T "BAND=%albuminterpret%" -T "COMPOSER=%composer%" %haslyrics%–tag-from-file=LYRICS="%lyricsfile%"%haslyrics% -T "DISCNUMBER=%cdnumber%" -T "TOTALDISCS=%totalcds%" -T "TOTALTRACKS=%numtracks%" %hascover%–picture="%coverfile%"%hascover% %source% -o %dest%


TOC of the extracted CD

Track | Start | Length | Start sector | End sector
––––––––––––––––––––––––––––-
1 | 0:00.00 | 2:45.14 | 0 | 12388
2 | 2:45.14 | 4:15.46 | 12389 | 31559
3 | 7:00.60 | 3:33.33 | 31560 | 47567
4 | 10:34.18 | 3:40.27 | 47568 | 64094
5 | 14:14.45 | 3:46.51 | 64095 | 81095
6 | 18:01.21 | 4:03.34 | 81096 | 99354
7 | 22:04.55 | 6:01.10 | 99355 | 126439
8 | 28:05.65 | 4:30.72 | 126440 | 146761
9 | 32:36.62 | 3:08.43 | 146762 | 160904
10 | 35:45.30 | 2:14.67 | 160905 | 171021
11 | 38:00.22 | 6:26.67 | 171022 | 200038
12 | 44:27.14 | 3:10.45 | 200039 | 214333
13 | 47:37.59 | 3:34.54 | 214334 | 230437
14 | 51:12.38 | 3:17.68 | 230438 | 245280
15 | 54:30.31 | 3:20.14 | 245281 | 260294
16 | 57:50.45 | 2:48.54 | 260295 | 272948
17 | 60:39.24 | 5:28.20 | 272949 | 297568


Range status and errors

Selected range

Filename C:\mm\Fleetwood Mac\2009 - The Very Best Of Fleetwood Mac [8122798316]\Fleetwood Mac - The Very Best Of Fleetwood Mac CD1.wav

Peak level 98.8 %
Extraction speed 10.2 X
Range quality 100.0 %
Test CRC 0DD42299
Copy CRC 0DD42299
Copy OK

No errors occurred


AccurateRip summary

Track 1 accurately ripped (confidence 184) [38B3D63F] (AR v2)
Track 2 accurately ripped (confidence 186) [B77E158A] (AR v2)
Track 3 accurately ripped (confidence 186) [3F2E1E0D] (AR v2)
Track 4 accurately ripped (confidence 185) [333B39CB] (AR v2)
Track 5 accurately ripped (confidence 186) [B74A5CA9] (AR v2)
Track 6 accurately ripped (confidence 185) [B24AD435] (AR v2)
Track 7 accurately ripped (confidence 181) [D9927A0B] (AR v2)
Track 8 accurately ripped (confidence 185) [36B81939] (AR v2)
Track 9 accurately ripped (confidence 185) [0D2ABE88] (AR v2)
Track 10 accurately ripped (confidence 183) [C5E8149B] (AR v2)
Track 11 accurately ripped (confidence 185) [C924898F] (AR v2)
Track 12 accurately ripped (confidence 184) [8A88066E] (AR v2)
Track 13 accurately ripped (confidence 183) [47D48E62] (AR v2)
Track 14 accurately ripped (confidence 183) [7D0B3FD6] (AR v2)
Track 15 accurately ripped (confidence 184) [D51AB7E0] (AR v2)
Track 16 accurately ripped (confidence 184) [0B214AC6] (AR v2)
Track 17 accurately ripped (confidence 184) [6855A11C] (AR v2)

All tracks accurately ripped

End of status report

foobar2000 1.3.16 / Dynamic Range Meter 1.1.1
log date: 2018-01-28 22:43:42

––––––––––––––––––––––––––––––––––––––––
Analyzed: Fleetwood Mac / The Very Best Of Fleetwood Mac CD1
––––––––––––––––––––––––––––––––––––––––

DR Peak RMS Duration Track
––––––––––––––––––––––––––––––––––––––––
DR9 -0.10 dB -10.21 dB 2:45 01-Monday Morning [from 'Fleetwood Mac', 1976]
DR10 -0.34 dB -11.68 dB 4:16 02-Dreams [from 'Rumours', 1977]
DR8 -0.34 dB -11.31 dB 3:33 03-You Make Loving Fun [from 'Rumours', 1977]
DR9 -0.10 dB -10.11 dB 3:40 04-Go Your Own Way [from 'Rumours', 1977]
DR7 -0.10 dB -9.21 dB 3:47 05-Rhiannon [from 'Fleetwood Mac', 1975]
DR9 -0.10 dB -10.99 dB 4:03 06-Say You Love Me [from 'Fleetwood Mac', 1975]
DR9 -0.10 dB -10.10 dB 6:01 07-I'm So Afraid [from 'The Dance', Live, 1997]
DR11 -0.10 dB -14.66 dB 4:31 08-Silver Springs [from 25 years - The Chain', 1992]
DR11 -0.47 dB -13.30 dB 3:09 09-Over My Head [from 'Fleetwood Mac', 1975]
DR14 -1.34 dB -17.62 dB 2:15 10-Never Going Back Again [from 'Rumours', 1977]
DR11 -0.10 dB -13.03 dB 6:27 11-Sara [from 'Tusk', 1979]
DR9 -0.34 dB -11.38 dB 3:11 12-Love In Store [from 'Mirage', 1982]
DR9 -0.10 dB -12.73 dB 3:35 13-Tusk [from 'Tusk', 1979]
DR10 -1.37 dB -13.64 dB 3:18 14-Landslide [from 'Fleetwood Mac', 1975]
DR12 -0.34 dB -16.59 dB 3:20 15-Songbird [from 'Rumours', 1977]
DR8 -0.34 dB -11.45 dB 2:49 16-Big Love [from 'The Dance', Live, 1997]
DR11 -0.34 dB -13.04 dB 5:28 17-Storms [from 'Tusk', 1979]
––––––––––––––––––––––––––––––––––––––––

Number of tracks: 17
Official DR value: DR10

Samplerate: 44100 Hz
Channels: 2
Bits per sample: 16
Bitrate: 877 kbps
Codec: FLAC
================================================================================

[CUETools log; Date: 28.01.2018 22:44:01; Version: 2.1.5]
[CTDB TOCID: .ETuMh81C8AVvjwbbTn_jdk2B4U-] found.
Track | CTDB Status
1 | (678/681) Accurately ripped
2 | (678/681) Accurately ripped
3 | (679/681) Accurately ripped
4 | (677/681) Accurately ripped
5 | (675/681) Accurately ripped
6 | (678/681) Accurately ripped
7 | (679/681) Accurately ripped
8 | (679/681) Accurately ripped
9 | (678/681) Accurately ripped
10 | (675/681) Accurately ripped
11 | (674/681) Accurately ripped
12 | (677/681) Accurately ripped
13 | (677/681) Accurately ripped
14 | (678/681) Accurately ripped
15 | (675/681) Accurately ripped
16 | (676/681) Accurately ripped
17 | (676/681) Accurately ripped
[AccurateRip ID: 00289ed1-020517bd-050f7f11] found.
Track [ CRC | V2 ] Status
01 [1526fa99|38b3d63f] (099+200/355) Accurately ripped
02 [c12691c2|b77e158a] (098+200/354) Accurately ripped
03 [18d577e1|3f2e1e0d] (098+200/354) Accurately ripped
04 [c823667a|333b39cb] (098+200/354) Accurately ripped
05 [1c4a8da0|b74a5ca9] (098+200/355) Accurately ripped
06 [86bab6de|b24ad435] (098+200/354) Accurately ripped
07 [21bd3f4c|d9927a0b] (097+200/354) Accurately ripped
08 [92f21186|36b81939] (098+200/354) Accurately ripped
09 [4d69f932|0d2abe88] (100+200/357) Accurately ripped
10 [7545693c|c5e8149b] (099+200/356) Accurately ripped
11 [85860da6|c924898f] (098+200/354) Accurately ripped
12 [ec4c70fb|8a88066e] (098+200/355) Accurately ripped
13 [3f501720|47d48e62] (097+200/353) Accurately ripped
14 [f08e0e8e|7d0b3fd6] (098+200/354) Accurately ripped
15 [f9d9d5bb|d51ab7e0] (098+200/355) Accurately ripped
16 [7b166e6c|0b214ac6] (097+200/353) Accurately ripped
17 [3ef1f9fb|6855a11c] (095+200/350) Accurately ripped
Offsetted by -66:
01 [ef54434b] (008/355) Accurately ripped
02 [8e8a1533] (008/354) Accurately ripped
03 [e99b7e4b] (008/354) Accurately ripped
04 [128615fa] (008/354) Accurately ripped
05 [546f866c] (008/355) Accurately ripped
06 [917a7dbb] (008/354) Accurately ripped
07 [dbdd9202] (008/354) Accurately ripped
08 [21ba4f24] (008/354) Accurately ripped
09 [4e6a81d0] (008/357) Accurately ripped
10 [60a3fc34] (008/356) Accurately ripped
11 [02b5eb16] (008/354) Accurately ripped
12 [277c8f05] (008/355) Accurately ripped
13 [0bf4f2f2] (008/353) Accurately ripped
14 [2a03139a] (008/354) Accurately ripped
15 [24735812] (008/355) Accurately ripped
16 [5b86ad65] (008/353) Accurately ripped
17 [eb1e29e1] (008/350) Accurately ripped
Offsetted by -12:
01 [c0a47eff] (009/355) Accurately ripped
02 [10b1d8b7] (009/354) Accurately ripped
03 [8a514a1c] (009/354) Accurately ripped
04 [23d5e37a] (009/354) Accurately ripped
05 [6918c934] (009/355) Accurately ripped
06 [42df5060] (009/354) Accurately ripped
07 [72203710] (009/354) Accurately ripped
08 [95a21cba] (009/354) Accurately ripped
09 [480aabae] (009/357) Accurately ripped
10 [71929c1c] (009/356) Accurately ripped
11 [f74a1a29] (009/354) Accurately ripped
12 [6336e2b8] (009/355) Accurately ripped
13 [79746e04] (009/353) Accurately ripped
14 [51643c92] (009/354) Accurately ripped
15 [cd3cc3eb] (009/355) Accurately ripped
16 [7760d86c] (009/353) Accurately ripped
17 [e9e2bcdf] (008/350) Accurately ripped
Offsetted by -664:
01 [e955302b] (000/355) No match (V2 was not tested)
02 [378d117d] (000/354) No match (V2 was not tested)
03 [131ed9dc] (000/354) No match (V2 was not tested)
04 [017086b5] (000/354) No match (V2 was not tested)
05 [905d660c] (000/355) No match (V2 was not tested)
06 [d877237b] (000/354) No match (V2 was not tested)
07 [81cc2254] (000/354) No match (V2 was not tested)
08 [d2547d6e] (000/354) No match (V2 was not tested)
09 [66aee145] (000/357) No match (V2 was not tested)
10 [b7e5b281] (000/356) No match (V2 was not tested)
11 [432f66c8] (000/354) No match (V2 was not tested)
12 [9edca700] (000/355) No match (V2 was not tested)
13 [f5b8f26b] (000/353) No match (V2 was not tested)
14 [363f15cb] (000/354) No match (V2 was not tested)
15 [d8c92009] (000/355) No match (V2 was not tested)
16 [8be26a17] (000/353) No match (V2 was not tested)
17 [dc516f43] (000/350) No match (V2 was not tested)
Offsetted by -42:
01 [ade7410e] (000/355) No match (V2 was not tested)
02 [e1d59144] (000/354) No match (V2 was not tested)
03 [25f6d863] (000/354) No match (V2 was not tested)
04 [84d21bfa] (000/354) No match (V2 was not tested)
05 [734a5002] (000/355) No match (V2 was not tested)
06 [19284e45] (000/354) No match (V2 was not tested)
07 [3b17a27a] (000/354) No match (V2 was not tested)
08 [1c5a38bc] (000/354) No match (V2 was not tested)
09 [523534f0] (000/357) No match (V2 was not tested)
10 [67da99a8] (000/356) No match (V2 was not tested)
11 [324ce822] (000/354) No match (V2 was not tested)
12 [8bcec345] (000/355) No match (V2 was not tested)
13 [91414934] (000/353) No match (V2 was not tested)
14 [528612ce] (000/354) No match (V2 was not tested)
15 [46fa1895] (000/355) No match (V2 was not tested)
16 [6a4fdf04] (000/353) No match (V2 was not tested)
17 [953ca419] (000/350) No match (V2 was not tested)
Offsetted by -18:
01 [0951a8d1] (000/355) No match (V2 was not tested)
02 [377f000e] (000/354) No match (V2 was not tested)
03 [431b334a] (000/354) No match (V2 was not tested)
04 [ad4221fa] (000/354) No match (V2 was not tested)
05 [c2d1b4b3] (000/355) No match (V2 was not tested)
06 [a0f81cf8] (000/354) No match (V2 was not tested)
07 [9a51b2f2] (000/354) No match (V2 was not tested)
08 [16fa2254] (000/354) No match (V2 was not tested)
09 [b7c6050c] (000/357) No match (V2 was not tested)
10 [6fa8356c] (000/356) No match (V2 was not tested)
11 [ae8aa9ac] (000/354) No match (V2 was not tested)
12 [0fdffadc] (000/355) No match (V2 was not tested)
13 [99a8196e] (000/353) No match (V2 was not tested)
14 [ca5d69c8] (000/354) No match (V2 was not tested)
15 [4d37705f] (000/355) No match (V2 was not tested)
16 [752f0d41] (000/353) No match (V2 was not tested)
17 [3f5b1e51] (000/350) No match (V2 was not tested)

Track Peak [ CRC32 ] [W/O NULL] [ LOG ]
– 98,8 [0DD42299] [64963274] CRC32
01 98,8 [C65804DB] [F2AE086B]
02 96,1 [A84CBB6F] [4C43B253]
03 96,1 [947E591E] [87BE3DD3]
04 98,8 [58BAA1ED] [F3DBCB9A]
05 98,8 [969B6A02] [886B3818]
06 98,8 [C7A5E266] [613BB05B]
07 98,8 [DBA5E593] [4EB50518]
08 98,8 [5B0B0025] [7DBB134B]
09 94,7 [D868A1F0] [A5928156]
10 85,6 [EBFE2857] [57BB9CDC]
11 98,8 [2C80847F] [77EB230D]
12 96,1 [F190FF08] [598D4F49]
13 98,8 [3FC7E87C] [42550D43]
14 85,4 [FFA42569] [A8C0482A]
15 96,1 [A45310FC] [8B88E0EC]
16 96,1 [250C2EA0] [B32A6A00]
17 96,1 [8843453A] [ABDBDF44]

Fleetwood Mac - The Very Best Of Fleetwood Mac (2002) {2009, Remastered}

Fleetwood Mac - The Very Best Of Fleetwood Mac (2002) {2009, Remastered}

Track List CD2:

01. The Chain [from 'Rumours', 1977] [0:04:29.31]
02. Don't Stop [from 'Rumours', 1977] [0:03:12.35]
03. What Makes You Think You're the One [from 'Tusk', 1979] [0:03:30.48]
04. Gypsy [from 'Mirage', 1982] [0:04:22.63]
05. Second Hand News [from 'Rumours', 1977] [0:02:52.14]
06. Little Lies [from 'Tango in the Night', 1987] [0:03:39.36]
07. Think About Me [Single version, from 'Tusk', 1979] [0:02:42.54]
08. Go Insane [Live, 1997, from 'The Dance', 1997] [0:04:20.49]
09. Gold Dust Woman [from 'Rumours', 1977] [0:04:59.46]
10. Hold Me [from 'Mirage', 1982] [0:03:44.44]
11. Seven Wonders [from 'Tango in the Night', 1987] [0:03:38.06]
12. World Turning [from 'Fleetwood Mac', 1975] [0:04:24.22]
13. Everywhere [from 'Tango in the Night', 1987] [0:03:41.73]
14. Sisters of the Moon [Single version, from 'Tusk', 1979] [0:04:41.08]
15. Family Man [from 'Tango in the Night', 1987] [0:04:01.55]
16. As Long as You Follow [from 'Greatest Hits', 1988] [0:04:18.32]
17. No Questions Asked [from 'Greatest Hits', 1988] [0:04:42.71]
18. Skies the Limit [from 'Behind the Mask', 1990] [0:03:46.17]
19. Paper Doll [from '25 Years-The Chain', 1992] [0:03:58.08]

Exact Audio Copy V1.0 beta 3 from 29. August 2011

EAC extraction logfile from 21. April 2015, 17:41

Fleetwood Mac / The Very Best of Fleetwood Mac CD2

Used drive : ATAPI iHAS124 D Adapter: 0 ID: 2

Read mode : Secure
Utilize accurate stream : Yes
Defeat audio cache : Yes
Make use of C2 pointers : No

Read offset correction : 6
Overread into Lead-In and Lead-Out : No
Fill up missing offset samples with silence : Yes
Delete leading and trailing silent blocks : No
Null samples used in CRC calculations : Yes
Used interface : Installed external ASPI interface

Used output format : User Defined Encoder
Selected bitrate : 1024 kBit/s
Quality : High
Add ID3 tag : No
Command line compressor : C:\Program Files (x86)\Exact Audio Copy\Flac\flac.exe
Additional command line options : -6 -V -T "ARTIST=%artist%" -T "TITLE=%title%" -T "ALBUM=%albumtitle%" -T "DATE=%year%" -T "TRACKNUMBER=%tracknr%" -T "GENRE=%genre%" -T "COMMENT=%comment%" -T "BAND=%albuminterpret%" -T "COMPOSER=%composer%" %haslyrics%–tag-from-file=LYRICS="%lyricsfile%"%haslyrics% -T "DISCNUMBER=%cdnumber%" -T "TOTALDISCS=%totalcds%" -T "TOTALTRACKS=%numtracks%" %hascover%–picture="%coverfile%"%hascover% %source% -o %dest%


TOC of the extracted CD

Track | Start | Length | Start sector | End sector
––––––––––––––––––––––––––––-
1 | 0:00.00 | 4:29.31 | 0 | 20205
2 | 4:29.31 | 3:12.35 | 20206 | 34640
3 | 7:41.66 | 3:30.48 | 34641 | 50438
4 | 11:12.39 | 4:22.63 | 50439 | 70151
5 | 15:35.27 | 2:52.14 | 70152 | 83065
6 | 18:27.41 | 3:39.36 | 83066 | 99526
7 | 22:07.02 | 2:42.54 | 99527 | 111730
8 | 24:49.56 | 4:20.49 | 111731 | 131279
9 | 29:10.30 | 4:59.46 | 131280 | 153750
10 | 34:10.01 | 3:44.44 | 153751 | 170594
11 | 37:54.45 | 3:38.06 | 170595 | 186950
12 | 41:32.51 | 4:24.22 | 186951 | 206772
13 | 45:56.73 | 3:41.73 | 206773 | 223420
14 | 49:38.71 | 4:41.08 | 223421 | 244503
15 | 54:20.04 | 4:01.55 | 244504 | 262633
16 | 58:21.59 | 4:18.32 | 262634 | 282015
17 | 62:40.16 | 4:42.71 | 282016 | 303236
18 | 67:23.12 | 3:46.17 | 303237 | 320203
19 | 71:09.29 | 3:58.08 | 320204 | 338061


Range status and errors

Selected range

Filename C:\mm\Fleetwood Mac\2009 - The Very Best Of Fleetwood Mac [8122798316]\Fleetwood Mac - The Very Best of Fleetwood Mac CD2.wav

Peak level 98.8 %
Extraction speed 10.4 X
Range quality 100.0 %
Test CRC F4760CD2
Copy CRC F4760CD2
Copy OK

No errors occurred


AccurateRip summary

Track 1 accurately ripped (confidence 181) [205587FB] (AR v2)
Track 2 accurately ripped (confidence 180) [8F78F4A8] (AR v2)
Track 3 accurately ripped (confidence 180) [B91263C6] (AR v2)
Track 4 accurately ripped (confidence 181) [8580732D] (AR v2)
Track 5 accurately ripped (confidence 182) [73308504] (AR v2)
Track 6 accurately ripped (confidence 183) [893BA5A7] (AR v2)
Track 7 accurately ripped (confidence 182) [333E8105] (AR v2)
Track 8 accurately ripped (confidence 182) [207EDCDD] (AR v2)
Track 9 accurately ripped (confidence 182) [BCD40031] (AR v2)
Track 10 accurately ripped (confidence 182) [4A571D8C] (AR v2)
Track 11 accurately ripped (confidence 183) [C80767D9] (AR v2)
Track 12 accurately ripped (confidence 181) [FC6DAC42] (AR v2)
Track 13 accurately ripped (confidence 183) [C6C9F528] (AR v2)
Track 14 accurately ripped (confidence 182) [A7F78E28] (AR v2)
Track 15 accurately ripped (confidence 183) [3F42C477] (AR v2)
Track 16 accurately ripped (confidence 182) [D82FBCAA] (AR v2)
Track 17 accurately ripped (confidence 181) [5FDCC73A] (AR v2)
Track 18 accurately ripped (confidence 181) [3983996C] (AR v2)
Track 19 accurately ripped (confidence 175) [F4518033] (AR v2)

All tracks accurately ripped

End of status report

foobar2000 1.3.16 / Dynamic Range Meter 1.1.1
log date: 2018-01-28 22:44:36

––––––––––––––––––––––––––––––––––––––––
Analyzed: Fleetwood Mac / The Very Best of Fleetwood Mac CD2
––––––––––––––––––––––––––––––––––––––––

DR Peak RMS Duration Track
––––––––––––––––––––––––––––––––––––––––
DR9 -0.10 dB -13.05 dB 4:29 01-The Chain [from 'Rumours', 1977]
DR9 -0.34 dB -11.08 dB 3:12 02-Don't Stop [from 'Rumours', 1977]
DR9 -0.34 dB -11.06 dB 3:31 03-What Makes You Think You're the One [from 'Tusk', 1979]
DR9 -0.34 dB -10.98 dB 4:23 04-Gypsy [from 'Mirage', 1982]
DR8 -0.10 dB -10.44 dB 2:52 05-Second Hand News [from 'Rumours', 1977]
DR9 -0.34 dB -11.27 dB 3:39 06-Little Lies [from 'Tango in the Night', 1987]
DR10 -0.23 dB -11.38 dB 2:43 07-Think About Me [Single version, from 'Tusk', 1979]
DR12 -0.34 dB -14.73 dB 4:21 08-Go Insane [Live, 1997, from 'The Dance', 1997]
DR9 -0.58 dB -13.16 dB 5:00 09-Gold Dust Woman [from 'Rumours', 1977]
DR7 -0.34 dB -10.86 dB 3:45 10-Hold Me [from 'Mirage', 1982]
DR9 -0.34 dB -11.14 dB 3:38 11-Seven Wonders [from 'Tango in the Night', 1987]
DR9 -0.34 dB -12.21 dB 4:24 12-World Turning [from 'Fleetwood Mac', 1975]
DR8 -0.34 dB -10.57 dB 3:42 13-Everywhere [from 'Tango in the Night', 1987]
DR7 -0.34 dB -10.52 dB 4:41 14-Sisters of the Moon [Single version, from 'Tusk', 1979]
DR10 -0.10 dB -11.14 dB 4:02 15-Family Man [from 'Tango in the Night', 1987]
DR6 -0.12 dB -9.36 dB 4:18 16-As Long as You Follow [from 'Greatest Hits', 1988]
DR8 -0.24 dB -9.15 dB 4:43 17-No Questions Asked [from 'Greatest Hits', 1988]
DR8 -0.34 dB -10.11 dB 3:46 18-Skies the Limit [from 'Behind the Mask', 1990]
DR9 -0.34 dB -11.06 dB 3:58 19-Paper Doll [from '25 Years-The Chain', 1992]
––––––––––––––––––––––––––––––––––––––––

Number of tracks: 19
Official DR value: DR9

Samplerate: 44100 Hz
Channels: 2
Bits per sample: 16
Bitrate: 953 kbps
Codec: FLAC
================================================================================

[CUETools log; Date: 28.01.2018 22:44:53; Version: 2.1.5]
[CTDB TOCID: 9fMCpFIStmVE2QOTGTYrffBAJ1o-] found.
Track | CTDB Status
1 | (649/657) Accurately ripped
2 | (651/657) Accurately ripped
3 | (650/657) Accurately ripped
4 | (647/657) Accurately ripped
5 | (653/657) Accurately ripped
6 | (650/657) Accurately ripped
7 | (651/657) Accurately ripped
8 | (652/657) Accurately ripped
9 | (650/657) Accurately ripped
10 | (650/657) Accurately ripped
11 | (648/657) Accurately ripped
12 | (648/657) Accurately ripped
13 | (646/657) Accurately ripped
14 | (647/657) Accurately ripped
15 | (647/657) Accurately ripped
16 | (646/657) Accurately ripped
17 | (646/657) Accurately ripped
18 | (648/657) Accurately ripped
19 | (643/657) Accurately ripped
[AccurateRip ID: 00324006-02c42189-11119b13] found.
Track [ CRC | V2 ] Status
01 [e04564de|205587fb] (097+200/349) Accurately ripped
02 [2d79458c|8f78f4a8] (096+200/349) Accurately ripped
03 [c196eaf1|b91263c6] (096+200/350) Accurately ripped
04 [305ad0f3|8580732d] (096+200/349) Accurately ripped
05 [3f4b2fac|73308504] (096+200/350) Accurately ripped
06 [d4a4e422|893ba5a7] (096+200/348) Accurately ripped
07 [f9cbe439|333e8105] (097+200/351) Accurately ripped
08 [bb4dedfd|207edcdd] (097+200/351) Accurately ripped
09 [e8131f38|bcd40031] (097+200/351) Accurately ripped
10 [00784a0b|4a571d8c] (097+200/351) Accurately ripped
11 [85dc6d51|c80767d9] (096+200/348) Accurately ripped
12 [95637b1e|fc6dac42] (097+200/351) Accurately ripped
13 [e1f8f15d|c6c9f528] (096+200/349) Accurately ripped
14 [17da9d10|a7f78e28] (097+200/351) Accurately ripped
15 [616d9f69|3f42c477] (097+200/350) Accurately ripped
16 [5538c7b1|d82fbcaa] (095+200/349) Accurately ripped
17 [c86fff69|5fdcc73a] (094+200/348) Accurately ripped
18 [ecbd1c04|3983996c] (095+200/348) Accurately ripped
19 [aea81699|f4518033] (095+200/347) Accurately ripped
Offsetted by -66:
01 [9ddd0436] (007/349) Accurately ripped
02 [77488760] (007/349) Accurately ripped
03 [4ecbe0cb] (007/350) Accurately ripped
04 [99c75c99] (007/349) Accurately ripped
05 [3ea64eb0] (007/350) Accurately ripped
06 [0c31c8ba] (007/348) Accurately ripped
07 [0fb8266a] (007/351) Accurately ripped
08 [da0603d8] (007/351) Accurately ripped
09 [df887e16] (007/351) Accurately ripped
10 [4ca76e17] (007/351) Accurately ripped
11 [80ebae59] (007/348) Accurately ripped
12 [5669153a] (007/351) Accurately ripped
13 [36830666] (007/349) Accurately ripped
14 [c526a78d] (007/351) Accurately ripped
15 [cf3c4f25] (007/350) Accurately ripped
16 [34073e71] (007/349) Accurately ripped
17 [1dff43a2] (007/348) Accurately ripped
18 [165a5b93] (007/348) Accurately ripped
19 [c2ae7773] (007/347) Accurately ripped
Offsetted by -12:
01 [1a03deee] (008/349) Accurately ripped
02 [f5135184] (009/349) Accurately ripped
03 [385aba8d] (009/350) Accurately ripped
04 [b7e2ea57] (009/349) Accurately ripped
05 [567306c4] (009/350) Accurately ripped
06 [e8156f9f] (008/348) Accurately ripped
07 [4e8fc11e] (009/351) Accurately ripped
08 [34aa9623] (009/351) Accurately ripped
09 [2c5701ec] (009/351) Accurately ripped
10 [ca21d5db] (009/351) Accurately ripped
11 [8fd4498e] (008/348) Accurately ripped
12 [90f6cd79] (009/351) Accurately ripped
13 [bc8be44e] (009/349) Accurately ripped
14 [66f99f2b] (009/351) Accurately ripped
15 [30627941] (009/350) Accurately ripped
16 [0957c609] (009/349) Accurately ripped
17 [f8b2c4bb] (009/348) Accurately ripped
18 [96dd5762] (008/348) Accurately ripped
19 [b24c2835] (009/347) Accurately ripped
Offsetted by -42:
01 [2a601016] (000/349) No match (V2 was not tested)
02 [e8146f70] (000/349) No match (V2 was not tested)
03 [61444193] (000/350) No match (V2 was not tested)
04 [8ab729d1] (000/349) No match (V2 was not tested)
05 [1056a080] (000/350) No match (V2 was not tested)
06 [d63b111a] (000/348) No match (V2 was not tested)
07 [e3086a7e] (000/351) No match (V2 was not tested)
08 [e54db80c] (000/351) No match (V2 was not tested)
09 [5700b8ae] (000/351) No match (V2 was not tested)
10 [da50b363] (000/351) No match (V2 was not tested)
11 [2ce3714e] (000/348) No match (V2 was not tested)
12 [9ee985fe] (000/351) No match (V2 was not tested)
13 [06f49b0f] (000/349) No match (V2 was not tested)
14 [2ad8a3e7] (000/351) No match (V2 was not tested)
15 [ddf7f015] (000/350) No match (V2 was not tested)
16 [cbb941d1] (000/349) No match (V2 was not tested)
17 [88acb47e] (000/348) No match (V2 was not tested)
18 [c0cae957] (000/348) No match (V2 was not tested)
19 [bb66543b] (000/347) No match (V2 was not tested)
Offsetted by -18:
01 [b6e31bf6] (000/349) No match (V2 was not tested)
02 [58e05780] (000/349) No match (V2 was not tested)
03 [73bca25b] (000/350) No match (V2 was not tested)
04 [7ba6f709] (000/349) No match (V2 was not tested)
05 [e206f250] (000/350) No match (V2 was not tested)
06 [c16be653] (000/348) No match (V2 was not tested)
07 [ba59afad] (000/351) No match (V2 was not tested)
08 [f1726a00] (000/351) No match (V2 was not tested)
09 [ce78f346] (000/351) No match (V2 was not tested)
10 [acc49bc3] (000/351) No match (V2 was not tested)
11 [95f47791] (000/348) No match (V2 was not tested)
12 [b6c8cf1c] (000/351) No match (V2 was not tested)
13 [7b138d09] (000/349) No match (V2 was not tested)
14 [8e67a024] (000/351) No match (V2 was not tested)
15 [ecb39105] (000/350) No match (V2 was not tested)
16 [636b4531] (000/349) No match (V2 was not tested)
17 [f6c4279a] (000/348) No match (V2 was not tested)
18 [6bf974db] (000/348) No match (V2 was not tested)
19 [b41e3103] (000/347) No match (V2 was not tested)

Track Peak [ CRC32 ] [W/O NULL] [ LOG ]
– 98,8 [F4760CD2] [C36FFD58] CRC32
01 98,8 [83101A38] [87BCD2A6]
02 96,1 [FE9934A5] [33E46784]
03 96,1 [506704DC] [5784F225]
04 96,1 [78A8AEDB] [D329C705]
05 98,8 [2C806449] [D1108116]
06 96,1 [19CD4CAA] [917B2140]
07 97,4 [358D0B3B] [002D3780]
08 96,1 [D6A52447] [88404665]
09 93,5 [3766943D] [DAF833EC]
10 96,1 [FD468E86] [15BD27D1]
11 96,1 [8F3B7C96] [BE7F4C41]
12 96,1 [C29C5323] [776C1A59]
13 96,1 [3278754F] [B75769C0]
14 96,1 [10964573] [B2ECD96A]
15 98,8 [86D01AFE] [FE6B8862]
16 98,5 [0AC6FF8E] [2FB7F4C2]
17 97,2 [9E1B63EB] [AC1AF455]
18 96,1 [C548962A] [CE1C69D4]
19 96,1 [B3104B61] [A8839640]

Fleetwood Mac - The Very Best Of Fleetwood Mac (2002) {2009, Remastered}

All thanks go to sergych

>>> Fleetwood Mac in my Blog <<<

Download from icerbox.com: