Subcategories

Fleetwood Mac - Fleetwood Mac (1968) REPOST

Posted By: uff
Fleetwood Mac - Fleetwood Mac (1968) REPOST

Fleetwood Mac - Fleetwood Mac (1968)
Blues Rock | 1cd | EAC Rip | Flac + Cue + Log | covers
Columbia COL 477358 | rel: 1993 | 270Mb

Fleetwood Mac's debut LP was a highlight of the late-'60s British blues boom. Green's always inspired playing, the capable (if erratic) songwriting, and the general panache of the band as a whole placed them leagues above the overcrowded field. Elmore James is a big influence on this set, particularly on the tunes fronted by Jeremy Spencer ("Shake Your Moneymaker," "Got to Move"). Spencer's bluster, however, was outshone by the budding singing and songwriting skills of Green. The guitarist balanced humor and vulnerability on cuts like "Looking for Somebody" and "Long Grey Mare," and with "If I Loved Another Woman," he offered a glimpse of the Latin-blues fusion that he would perfect with "Black Magic Woman." The album was an unexpected smash in the U.K., reaching number four on the British charts. ~Allmusic

Track listing
01. My Heart Beat Like a Hammer (3:00)
02. Merry Go Round (4:11)
03. Long Grey Mare (2:18)
04. Hellhound on My Trail (2:02)
05. Shake Your Moneymaker (2:57)
06. Looking for Somebody (2:54)
07. No Place to Go (3:24)
08. My Baby's Good to Me (2:52)
09. I Loved Another Woman (2:58)
10. Cold Black Night (3:19)
11. The World Keep on Turning (2:32)
12. Got to Move (3:19)

Personnel
- Peter Green – vocals, guitar, harmonica
- Jeremy Spencer – vocals, slide guitar, piano
- John McVie – bass guitar on all tracks except "Long Grey Mare"
- Bob Brunning – bass guitar on "Long Grey Mare"
- Mick Fleetwood – drums


EAC extraction logfile from 3. January 2008, 23:15 for CD
Fleetwood Mac / Fleetwood Mac

Used drive : _NEC DVD_RW ND-3540A Adapter: 1 ID: 1
Read mode : Secure with NO C2, accurate stream, disable cache
Read offset correction : 48
Overread into Lead-In and Lead-Out : No

Used output format : Internal WAV Routines
44.100 Hz; 16 Bit; Stereo

Other options :
Fill up missing offset samples with silence : Yes
Delete leading and trailing silent blocks : No
Installed external ASPI interface


Track 1
Filename E:\Fleetwood Mac - Peter Green's Fleetwood Mac (1968) [FLAC] {COL 477358 - Original Stereo Mix}\01 - My Heart Beat Like A Hammer .wav

Pre-gap length 0:00:02.42

Peak level 94.6 %
Track quality 100.0 %
Test CRC DC2DA099
Copy CRC DC2DA099
Copy OK

Track 2
Filename E:\Fleetwood Mac - Peter Green's Fleetwood Mac (1968) [FLAC] {COL 477358 - Original Stereo Mix}\02 - Merry Go Round .wav

Pre-gap length 0:00:02.34

Peak level 94.6 %
Track quality 100.0 %
Test CRC D9E76362
Copy CRC D9E76362
Copy OK

Track 3
Filename E:\Fleetwood Mac - Peter Green's Fleetwood Mac (1968) [FLAC] {COL 477358 - Original Stereo Mix}\03 - Long Grey Mare .wav

Pre-gap length 0:00:03.65

Peak level 94.6 %
Track quality 100.0 %
Test CRC 4F81AB01
Copy CRC 4F81AB01
Copy OK

Track 4
Filename E:\Fleetwood Mac - Peter Green's Fleetwood Mac (1968) [FLAC] {COL 477358 - Original Stereo Mix}\04 - Hellhound On My Trail .wav

Pre-gap length 0:00:03.73

Peak level 85.5 %
Track quality 100.0 %
Test CRC C1A8842B
Copy CRC C1A8842B
Copy OK

Track 5
Filename E:\Fleetwood Mac - Peter Green's Fleetwood Mac (1968) [FLAC] {COL 477358 - Original Stereo Mix}\05 - Shake Your Moneymaker .wav

Pre-gap length 0:00:02.69

Peak level 94.6 %
Track quality 100.0 %
Test CRC 3461F309
Copy CRC 3461F309
Copy OK

Track 6
Filename E:\Fleetwood Mac - Peter Green's Fleetwood Mac (1968) [FLAC] {COL 477358 - Original Stereo Mix}\06 - Looking For Somebody .wav

Pre-gap length 0:00:02.05

Peak level 94.6 %
Track quality 100.0 %
Test CRC 864D1756
Copy CRC 864D1756
Copy OK

Track 7
Filename E:\Fleetwood Mac - Peter Green's Fleetwood Mac (1968) [FLAC] {COL 477358 - Original Stereo Mix}\07 - No Place To Go .wav

Pre-gap length 0:00:03.72

Peak level 94.6 %
Track quality 100.0 %
Test CRC 5CC72404
Copy CRC 5CC72404
Copy OK

Track 8
Filename E:\Fleetwood Mac - Peter Green's Fleetwood Mac (1968) [FLAC] {COL 477358 - Original Stereo Mix}\08 - My Baby's Good To Me .wav

Pre-gap length 0:00:03.80

Peak level 94.6 %
Track quality 100.0 %
Test CRC FB2A7767
Copy CRC FB2A7767
Copy OK

Track 9
Filename E:\Fleetwood Mac - Peter Green's Fleetwood Mac (1968) [FLAC] {COL 477358 - Original Stereo Mix}\09 - I Loved Another Woman .wav

Pre-gap length 0:00:02.21

Peak level 94.6 %
Track quality 99.9 %
Test CRC CA4F3703
Copy CRC CA4F3703
Copy OK

Track 10
Filename E:\Fleetwood Mac - Peter Green's Fleetwood Mac (1968) [FLAC] {COL 477358 - Original Stereo Mix}\10 - Cold Black Night .wav

Pre-gap length 0:00:03.36

Peak level 94.1 %
Track quality 100.0 %
Test CRC 1EAA57DC
Copy CRC 1EAA57DC
Copy OK

Track 11
Filename E:\Fleetwood Mac - Peter Green's Fleetwood Mac (1968) [FLAC] {COL 477358 - Original Stereo Mix}\11 - The World Keep On Turning .wav

Pre-gap length 0:00:03.20

Peak level 94.6 %
Track quality 100.0 %
Test CRC 831849C3
Copy CRC 831849C3
Copy OK

Track 12
Filename E:\Fleetwood Mac - Peter Green's Fleetwood Mac (1968) [FLAC] {COL 477358 - Original Stereo Mix}\12 - Got To Move .wav

Pre-gap length 0:00:04.05

Peak level 94.6 %
Track quality 100.0 %
Test CRC 34002843
Copy CRC 34002843
Copy OK

No errors occured


End of status report



[CUETools log; Date: 2015.07.28. 11:35:49; Version: 2.1.5]
Pregap length 00:00:32.
[CTDB TOCID: 6no44bPeO_0SeVJRuqnXrL0_mCs-] found.
Track | CTDB Status
1 | (35/35) Accurately ripped
2 | (35/35) Accurately ripped
3 | (35/35) Accurately ripped
4 | (35/35) Accurately ripped
5 | (35/35) Accurately ripped
6 | (35/35) Accurately ripped
7 | (35/35) Accurately ripped
8 | (35/35) Accurately ripped
9 | (35/35) Accurately ripped
10 | (35/35) Accurately ripped
11 | (35/35) Accurately ripped
12 | (35/35) Accurately ripped
[AccurateRip ID: 000ff319-0094619e-ab08630c] found.
Track [ CRC | V2 ] Status
01 [d5981d7c|2163f910] (009+008/155) Accurately ripped
02 [d07ea0bc|5539ef98] (009+008/156) Accurately ripped
03 [6a2c9d0d|8e7bd7db] (009+008/156) Accurately ripped
04 [b7c5709f|f26eb897] (009+008/155) Accurately ripped
05 [ddccd33e|0192a4b9] (009+008/156) Accurately ripped
06 [72e74b9f|72b98b34] (009+008/155) Accurately ripped
07 [0a58fd7c|055ca7b4] (009+008/156) Accurately ripped
08 [bf175b70|59041c01] (009+008/155) Accurately ripped
09 [8e49f05c|0cea1e84] (009+008/156) Accurately ripped
10 [a7e3c64b|2f3b7a17] (009+008/155) Accurately ripped
11 [06f0d3d6|1e1a5794] (009+008/155) Accurately ripped
12 [2cbdb67e|d7c8fdb3] (009+008/155) Accurately ripped
Offsetted by -325:
01 [0530c827] (013/155) Accurately ripped
02 [c929b245] (013/156) Accurately ripped
03 [530b9244] (013/156) Accurately ripped
04 [25310548] (013/155) Accurately ripped
05 [78215301] (013/156) Accurately ripped
06 [203b6a84] (013/155) Accurately ripped
07 [bc92053d] (013/156) Accurately ripped
08 [0315053e] (013/155) Accurately ripped
09 [7a9f1575] (012/156) Accurately ripped
10 [7aa71f2b] (012/155) Accurately ripped
11 [2285ecc3] (013/155) Accurately ripped
12 [b067aa34] (013/155) Accurately ripped
Offsetted by -271:
01 [e4b64fa8] (008/155) Accurately ripped
02 [71464989] (009/156) Accurately ripped
03 [ec3ecfca] (009/156) Accurately ripped
04 [e375f23b] (008/155) Accurately ripped
05 [3fdffa44] (009/156) Accurately ripped
06 [f2a5e6bc] (008/155) Accurately ripped
07 [42505a54] (009/156) Accurately ripped
08 [70c68fef] (008/155) Accurately ripped
09 [c3bca602] (010/156) Accurately ripped
10 [7d7d4f99] (009/155) Accurately ripped
11 [08c0cbb6] (008/155) Accurately ripped
12 [f67d9225] (008/155) Accurately ripped
Offsetted by -71:
01 [0251f881] (009/155) Accurately ripped
02 [1aeb2ad7] (009/156) Accurately ripped
03 [98a8fac9] (009/156) Accurately ripped
04 [ed24352d] (009/155) Accurately ripped
05 [9d2346b1] (009/156) Accurately ripped
06 [dbc4b29d] (009/155) Accurately ripped
07 [0715fbc2] (009/156) Accurately ripped
08 [1ec702bc] (009/155) Accurately ripped
09 [9f00eb87] (009/156) Accurately ripped
10 [9bcc911a] (009/155) Accurately ripped
11 [a7bddd6c] (009/155) Accurately ripped
12 [3d161162] (009/155) Accurately ripped
Offsetted by 762:
01 [81c5c20c] (005/155) Accurately ripped
02 [dbde4f41] (005/156) Accurately ripped
03 [0595bb37] (005/156) Accurately ripped
04 [0a1d79d8] (005/155) Accurately ripped
05 [0c32f01b] (005/156) Accurately ripped
06 [112d8714] (005/155) Accurately ripped
07 [023057a7] (005/156) Accurately ripped
08 [1c3d41a7] (005/155) Accurately ripped
09 [ca1cfec8] (005/156) Accurately ripped
10 [28fa06cc] (005/155) Accurately ripped
11 [e84dc2c1] (005/155) Accurately ripped
12 [108d4862] (005/155) Accurately ripped
Offsetted by 865:
01 [75c0741b] (002/155) Accurately ripped
02 [796886e3] (002/156) Accurately ripped
03 [e2fd2183] (002/156) Accurately ripped
04 [8a2c79c0] (002/155) Accurately ripped
05 [96ab541e] (002/156) Accurately ripped
06 [c6fc754b] (002/155) Accurately ripped
07 [b1a8941e] (002/156) Accurately ripped
08 [6da78662] (002/155) Accurately ripped
09 [d629b63f] (002/156) Accurately ripped
10 [59da5425] (002/155) Accurately ripped
11 [9ca5912d] (002/155) Accurately ripped
12 [8fbf22c4] (002/155) Accurately ripped
Offsetted by -313:
01 [95dd28ff] (000/155) No match (V2 was not tested)
02 [37f53818] (000/156) No match (V2 was not tested)
03 [5bab393b] (000/156) No match (V2 was not tested)
04 [bbf163bf] (000/155) No match (V2 was not tested)
05 [803f65ce] (000/156) No match (V2 was not tested)
06 [a3fc9c20] (000/155) No match (V2 was not tested)
07 [6e6c2474] (000/156) No match (V2 was not tested)
08 [c526a4c8] (000/155) No match (V2 was not tested)
09 [d7ec25ea] (000/156) No match (V2 was not tested)
10 [faea16c9] (000/155) No match (V2 was not tested)
11 [ffcb70b4] (000/155) No match (V2 was not tested)
12 [a47488a5] (000/155) No match (V2 was not tested)

Track Peak [ CRC32 ] [W/O NULL] [ LOG ]
– 94,6 [B6E4E40A] [736F2561]
01 94,6 [DC2DA099] [F90B33E4] CRC32
02 94,6 [D9E76362] [C89FCF79] CRC32
03 94,6 [4F81AB01] [B65BDE94] CRC32
04 85,5 [C1A8842B] [0C85239D] CRC32
05 94,6 [3461F309] [F4BCBAA0] CRC32
06 94,6 [864D1756] [47B4AB9A] CRC32
07 94,6 [5CC72404] [4752365A] CRC32
08 94,6 [FB2A7767] [8E95F922] CRC32
09 94,6 [CA4F3703] [16187FC4] CRC32
10 94,1 [1EAA57DC] [48DE8F71] CRC32
11 94,6 [831849C3] [8816BC32] CRC32
12 94,6 [34002843] [6BA70D9F] CRC32


original uploader unknown, found in my archive