Tags
Language
Tags

Flied Egg - Dr. Diegel's Fried Egg Shooting Machine (1972) [Japanese Ed.]

Posted By: v3122
Flied Egg - Dr. Diegel's Fried Egg Shooting Machine (1972) [Japanese Ed.]

Flied Egg - Dr. Diegel's Fried Egg Shooting Machine (1972)
EAC | Flac(Image) + Cue + Log & MP3 CBR 320Kbps
1992 | Philips PHCL-3016 | Japan | ~ 275 or 111 Mb | Artwork(jpg) -> 4.40 Mb
Heavy Progressive Rock

No matter how many times you listen to Flied Egg's first album `Dr Siegel's Fried Egg Shooting Machine' from 1972, you're still going to be scratching your head trying to figure out where even a second of the album hints that the band are from Japan! Not only do they sing in English (superbly too), but they draw a lot of influence from British bands like Uriah Heep, Deep Purple, and Black Sabbath, as well as the pop music from that country of the previous decade. Despite that, the endlessly eclectic album is full of colour and energy, and it's hard not to get caught up in the silly diversity of their musical split-personality approach!
The opening title track is a rollicking and up-tempo rocker, jammed full of guitar soloing that veers between acid-rock snarls and bluesy wailing, and little moments of the piece even hold touches of a Moody Blues-like sound. Both `Rolling Down The Broadway' and `Burning Fever' are ballsy hard-rock tunes that sound like the love child of Black Sabbath and Uriah Heep (plenty of strangled guitar soloing in the latter), and `I Love You' is one of the straighter moments, a lovingly sung romantic pop-ballad with elegant orchestration. The two part `Plastic Fantasy' is the highlight of the disc, the first half carried by gothic piano, spectral vocals and an unceasing presence of gloomy Hammond organ, but the final minutes divert into a dreamy pop reflection.

After a brief interlude of choral vocals, the band kick off their second side with punchy rocker `I'm Gonna See My Baby Tonight'. Much more interesting for proggies, instrumental `Oke-Kas' could give Triumvirat and Emerson, Lake & Palmer a run for their money, being a brash n' boisterous symphonic workout overloaded with ravishing piano and Hammond organ runs and endlessly thrashing drumming. `Someday' is another classy pop-ballad, and the eight minute Purple/Heep-esque closer `Guide Me To The Quietness' frequently reprises mud-thick Hammond organ blasts with bombastic and heavy guitar crashes, all wrapped around a doomed and melancholic heavy-hanging Ozzy Osbourne-like vocal.

`Dr Siegel…' is not particularly original, nor ever quite as psychedelic or mind-bending as the title and front cover art might suggest. But the LP is constantly joyful, loaded with tunes that often twist in unpredictable directions and vibrant playing. Frequent spins reveal how addictive and easy to enjoy it is, and if you like your prog melodic and mixed with cool Sixties sounds, you'll have a great time with this gently schizophrenic gem!

Three and a half stars.

by Aussie-Byrd-Brother, progarchives
Flied Egg - Dr. Diegel's Fried Egg Shooting Machine (1972):

Flied Egg - Dr. Diegel's Fried Egg Shooting Machine (1972) [Japanese Ed.]

Tracklist:

01. Dr. Siegel's Fried Egg Shooting Machine
02. Rolling Down The Broadway
03. I Love You
04. Burning Fever
05. Plastic Fantasy
06. 15 Seconds Of Schizophrenic Sabbath
07. I'm Gonna See My Babby Tonight
08. Oke-Kas
09. Someday
10. Guide Me To The Quietness

Exact Audio Copy V1.3 from 2. September 2016

EAC extraction logfile from 22. July 2021, 15:55

Flied Egg / Dr. Diegel's Fried Egg Shooting Machine

Used drive : ASUS DRW-24D5MT Adapter: 1 ID: 0

Read mode : Secure
Utilize accurate stream : Yes
Defeat audio cache : Yes
Make use of C2 pointers : No

Read offset correction : 6
Overread into Lead-In and Lead-Out : No
Fill up missing offset samples with silence : Yes
Delete leading and trailing silent blocks : No
Null samples used in CRC calculations : Yes
Used interface : Native Win32 interface for Win NT & 2000
Gap handling : Appended to previous track

Used output format : User Defined Encoder
Selected bitrate : 1024 kBit/s
Quality : High
Add ID3 tag : No
Command line compressor : C:\Program Files (x86)\Exact Audio Copy\Flac\flac.exe
Additional command line options : -V -8 -T "Genre=%genre%" -T "Artist=%artist%" -T "Title=%title%" -T "Album=%albumtitle%" -T "Date=%year%" -T "Tracknumber=%tracknr%" -T "Comment=%comment%" %source%


TOC of the extracted CD

Track | Start | Length | Start sector | End sector
––––––––––––––––––––––––––––-
1 | 0:00.37 | 6:09.63 | 37 | 27774
2 | 6:10.25 | 4:37.37 | 27775 | 48586
3 | 10:47.62 | 3:36.25 | 48587 | 64811
4 | 14:24.12 | 3:18.13 | 64812 | 79674
5 | 17:42.25 | 6:12.62 | 79675 | 107636
6 | 23:55.12 | 0:18.53 | 107637 | 109039
7 | 24:13.65 | 5:37.42 | 109040 | 134356
8 | 29:51.32 | 4:40.58 | 134357 | 155414
9 | 34:32.15 | 4:03.70 | 155415 | 173709
10 | 38:36.10 | 8:11.55 | 173710 | 210589


Track 1

Filename H:\Sket4er\Flied Egg – Dr. Siegel's Fried Egg Shooting Machine (1972) 1992\01 Dr. Diegel's Fried Egg Shooting Machine.wav

Pre-gap length 0:00:02.37

Peak level 79.2 %
Extraction speed 1.1 X
Track quality 99.9 %
Test CRC DBACF8AB
Copy CRC DBACF8AB
Track not present in AccurateRip database
Copy OK

Track 2

Filename H:\Sket4er\Flied Egg – Dr. Siegel's Fried Egg Shooting Machine (1972) 1992\02 Rolling Down The Broadway.wav

Peak level 69.9 %
Extraction speed 1.4 X
Track quality 100.0 %
Test CRC C020E986
Copy CRC C020E986
Track not present in AccurateRip database
Copy OK

Track 3

Filename H:\Sket4er\Flied Egg – Dr. Siegel's Fried Egg Shooting Machine (1972) 1992\03 I Love You.wav

Peak level 63.6 %
Extraction speed 1.4 X
Track quality 100.0 %
Test CRC 9F8BDE09
Copy CRC 9F8BDE09
Track not present in AccurateRip database
Copy OK

Track 4

Filename H:\Sket4er\Flied Egg – Dr. Siegel's Fried Egg Shooting Machine (1972) 1992\04 Burning Fever.wav

Peak level 64.7 %
Extraction speed 1.3 X
Track quality 99.9 %
Test CRC 00B54A37
Copy CRC 00B54A37
Track not present in AccurateRip database
Copy OK

Track 5

Filename H:\Sket4er\Flied Egg – Dr. Siegel's Fried Egg Shooting Machine (1972) 1992\05 Plastic Fantasy.wav

Peak level 68.3 %
Extraction speed 1.6 X
Track quality 99.9 %
Test CRC 85F9F233
Copy CRC 85F9F233
Track not present in AccurateRip database
Copy OK

Track 6

Filename H:\Sket4er\Flied Egg – Dr. Siegel's Fried Egg Shooting Machine (1972) 1992\06 15 Seconds Of Schizophrenic Sabbath.wav

Peak level 47.4 %
Extraction speed 0.6 X
Track quality 100.0 %
Test CRC 9D979082
Copy CRC 9D979082
Track not present in AccurateRip database
Copy OK

Track 7

Filename H:\Sket4er\Flied Egg – Dr. Siegel's Fried Egg Shooting Machine (1972) 1992\07 I'm Gonna See My Baby Tonight.wav

Peak level 66.7 %
Extraction speed 1.8 X
Track quality 100.0 %
Test CRC 22F1B1DD
Copy CRC 22F1B1DD
Track not present in AccurateRip database
Copy OK

Track 8

Filename H:\Sket4er\Flied Egg – Dr. Siegel's Fried Egg Shooting Machine (1972) 1992\08 Oke-Kus.wav

Peak level 62.0 %
Extraction speed 1.9 X
Track quality 100.0 %
Test CRC 0347F354
Copy CRC 0347F354
Track not present in AccurateRip database
Copy OK

Track 9

Filename H:\Sket4er\Flied Egg – Dr. Siegel's Fried Egg Shooting Machine (1972) 1992\09 Someday.wav

Peak level 68.8 %
Extraction speed 1.9 X
Track quality 100.0 %
Test CRC E030A220
Copy CRC E030A220
Track not present in AccurateRip database
Copy OK

Track 10

Filename H:\Sket4er\Flied Egg – Dr. Siegel's Fried Egg Shooting Machine (1972) 1992\10 Guide Me To The Quietness.wav

Peak level 66.0 %
Extraction speed 2.0 X
Track quality 99.9 %
Test CRC 2FE3FFB5
Copy CRC 2FE3FFB5
Track not present in AccurateRip database
Copy OK


None of the tracks are present in the AccurateRip database

No errors occurred

End of status report

–– CUETools DB Plugin V2.1.6

[CTDB TOCID: ru5t48Wt53Tx5v1yGgio06qYjIc-] found
Submit result: ru5t48Wt53Tx5v1yGgio06qYjIc- has been confirmed
Track | CTDB Status
1 | (6/6) Accurately ripped
2 | (6/6) Accurately ripped
3 | (6/6) Accurately ripped
4 | (6/6) Accurately ripped
5 | (6/6) Accurately ripped
6 | (6/6) Accurately ripped
7 | (6/6) Accurately ripped
8 | (6/6) Accurately ripped
9 | (6/6) Accurately ripped
10 | (6/6) Accurately ripped


==== Log checksum E32C0CAC43326CEEE346FE6190767F7C346612C50F3A38B2DD8FBBDF0B245F27 ====


[CUETools log; Date: 23.07.2021 13:28:21; Version: 2.1.4]
Pregap length 00:00:37.
[AccurateRip ID: 0010f653-00863476-8d0af70a] disk not present in database.

Track Peak [ CRC32 ] [W/O NULL] [ LOG ]
– 79,2 [02925594] [72D49C48]
01 79,2 [DBACF8AB] [1E20FFBE] CRC32
02 69,9 [C020E986] [B42CE8C6] CRC32
03 63,6 [9F8BDE09] [0F814556] CRC32
04 64,7 [00B54A37] [935F0B5D] CRC32
05 68,3 [85F9F233] [1D7C4E3D] CRC32
06 47,4 [9D979082] [9B771217] CRC32
07 66,7 [22F1B1DD] [E34FC006] CRC32
08 62,0 [0347F354] [70EDD7AC] CRC32
09 68,8 [E030A220] [1A1B5D3B] CRC32
10 66,0 [2FE3FFB5] [4535B642] CRC32


Flied Egg - Dr. Diegel's Fried Egg Shooting Machine (1972) [Japanese Ed.]

All thanks go to Sket4er

Flied Egg in my Blog

Download Flied Egg - Dr. Diegel's Fried Egg Shooting Machine (1972):