Subcategories

Flower Travellin' Band - Make Up (1973) [Reissue 2005]

Posted By: gribovar
Flower Travellin' Band - Make Up (1973) [Reissue 2005]

Flower Travellin' Band - Make Up (1973) [Reissue 2005]
EAC Rip | FLAC (tracks+.cue+log) - 612 MB | MP3 CBR 320 kbps (LAME 3.93) - 207 MB | Covers - 45 MB
Genre: Progressive/Psychedelic Rock | RAR 3% Rec. | Label: Strange Days Records/Warner Music Japan (SNS 5020/5021/WQCQ - 199/200)

Formed in 1967, this Japanese proggy-doom heavy rockin' band started their career with 60's West coast acid rock covers under the name Yuya Uchida & The Flowers ("Challenge", 1969). With "Anywhere" (1970 they were in search of their own sound and musical identity, surfing on 70's California rock and on the stoned heavy rock of the Sabbath. Satori (1971) remains their ultimate masterpiece, delivering a really captivating, personal psych-hard rockin' trip with discreet Eastern mystical influences. After this mesmerising stoner rock essay the band released a last album "Make up" (1973). Flower Travellin' Band is definitely a 70's cult psychedelic/space rock standard and a strong reference on the Japaneses underground scene with other psych-proto-metallers as Brush!? and Les Rallizes Denudes.

CD 1 Tracklist:
01. All the Days
02. Make Up
03. Look At My Window
04. Slowly But Surely
05. Shadows of Lost Days
06. Broken Strings

Total time: 41:57

CD 2 Tracklist:
01. Hiroshima
02. Blue Suede Shoes
03. Satori Part II
04. After the Concert

Total time: 45:58

Exact Audio Copy V0.99 prebeta 4 from 23. January 2008

EAC extraction logfile from 26. November 2010, 8:58

Flower Travellin' Band / MAKE UP_Disc 01

Used drive : HL-DT-STDVD-RAM GSA-H58N Adapter: 0 ID: 0

Read mode : Secure
Utilize accurate stream : Yes
Defeat audio cache : Yes
Make use of C2 pointers : No

Read offset correction : 102
Overread into Lead-In and Lead-Out : No
Fill up missing offset samples with silence : Yes
Delete leading and trailing silent blocks : No
Null samples used in CRC calculations : Yes
Used interface : Installed external ASPI interface
Gap handling : Appended to previous track

Used output format : User Defined Encoder
Selected bitrate : 1024 kBit/s
Quality : High
Add ID3 tag : No
Command line compressor : C:\Arquivos de programas\Exact Audio Copy\Flac\flac.exe
Additional command line options : -8 -A tukey(0.25) -A gauss(0.1875) -b 4096 -V -T "artist=%a" -T "title=%t" -T "album=%g" -T "date=%y" -T "tracknumber=%n" -T "genre=%m" %s –sector-align


TOC of the extracted CD

Track | Start | Length | Start sector | End sector
––––––––––––––––––––––––––––-
1 | 0:00.00 | 7:58.60 | 0 | 35909
2 | 7:58.60 | 3:02.25 | 35910 | 49584
3 | 11:01.10 | 11:43.27 | 49585 | 102336
4 | 22:44.37 | 6:09.53 | 102337 | 130064
5 | 28:54.15 | 4:48.55 | 130065 | 151719
6 | 33:42.70 | 8:13.57 | 151720 | 188751


Track 1

Filename C:\Documents and Settings\Nelson\Meus documentos\My Music\01 - Flower Travellin' Band - All The Days.wav

Pre-gap length 0:00:02.00

Peak level 100.0 %
Track quality 99.9 %
Test CRC 989088DA
Copy CRC 989088DA
Copy OK

Track 2

Filename C:\Documents and Settings\Nelson\Meus documentos\My Music\02 - Flower Travellin' Band - Make Up.wav

Peak level 100.0 %
Track quality 100.0 %
Test CRC 8DBCB3C4
Copy CRC 8DBCB3C4
Copy OK

Track 3

Filename C:\Documents and Settings\Nelson\Meus documentos\My Music\03 - Flower Travellin' Band - Look At My Window.wav

Peak level 100.0 %
Track quality 100.0 %
Test CRC 22898E18
Copy CRC 22898E18
Copy OK

Track 4

Filename C:\Documents and Settings\Nelson\Meus documentos\My Music\04 - Flower Travellin' Band - Slowly But Surely.wav

Pre-gap length 0:00:00.96

Peak level 100.0 %
Track quality 100.0 %
Test CRC DADAF991
Copy CRC DADAF991
Copy OK

Track 5

Filename C:\Documents and Settings\Nelson\Meus documentos\My Music\05 - Flower Travellin' Band - Shadows Of Lost Days.wav

Pre-gap length 0:00:02.46

Peak level 100.0 %
Track quality 100.0 %
Test CRC 0B867043
Copy CRC 0B867043
Copy OK

Track 6

Filename C:\Documents and Settings\Nelson\Meus documentos\My Music\06 - Flower Travellin' Band - Broken Strings.wav

Pre-gap length 0:00:02.46

Peak level 100.0 %
Track quality 100.0 %
Test CRC B30CC6E1
Copy CRC B30CC6E1
Copy OK

No errors occurred

End of status report

[CUETools log; Date: 27.10.2017 12:25:48; Version: 2.1.4]
[CTDB TOCID: 53sPrhDKyR6g25wn5b_U2sAFbYo-] found.
Track | CTDB Status
1 | (11/18) Accurately ripped
2 | (11/18) Accurately ripped
3 | (11/18) Accurately ripped
4 | (11/18) Accurately ripped
5 | (11/18) Accurately ripped
6 | (11/18) Accurately ripped
[AccurateRip ID: 000a0bc1-00359619-4609d406] found.
Track [ CRC | V2 ] Status
01 [581a93bb|dacb4a8b] (00+04/09) Accurately ripped
02 [333e5b7a|56546687] (00+04/09) Accurately ripped
03 [3014cc4e|f88fb1e8] (00+04/09) Accurately ripped
04 [9c55288f|af92ce09] (00+04/11) Accurately ripped
05 [10beb4e2|dec1de97] (00+04/09) Accurately ripped
06 [0be652d0|f97f132b] (00+04/09) Accurately ripped
Offsetted by 678:
01 [d0639e2d] (03/09) Accurately ripped
02 [4c33d26f] (03/09) Accurately ripped
03 [93948457] (03/09) Accurately ripped
04 [d2f5931d] (03/11) Accurately ripped
05 [5e2e2fc4] (03/09) Accurately ripped
06 [e8884dee] (03/09) Accurately ripped

Track Peak [ CRC32 ] [W/O NULL] [ LOG ]
– 100,0 [E9AD4563] [471CEA8B]
01 100,0 [989088DA] [AB9AC4CF] CRC32
02 100,0 [8DBCB3C4] [AC4C5DCA] CRC32
03 100,0 [22898E18] [3AEE4092] CRC32
04 100,0 [DADAF991] [23BC110F] CRC32
05 100,0 [0B867043] [75D8B16B] CRC32
06 100,0 [B30CC6E1] [BE400821] CRC32

Exact Audio Copy V0.99 prebeta 4 from 23. January 2008

EAC extraction logfile from 26. November 2010, 10:01

Flower Travellin' Band / Make Up

Used drive : HL-DT-STDVD-RAM GSA-H58N Adapter: 0 ID: 0

Read mode : Secure
Utilize accurate stream : Yes
Defeat audio cache : Yes
Make use of C2 pointers : No

Read offset correction : 102
Overread into Lead-In and Lead-Out : No
Fill up missing offset samples with silence : Yes
Delete leading and trailing silent blocks : No
Null samples used in CRC calculations : Yes
Used interface : Installed external ASPI interface
Gap handling : Appended to previous track

Used output format : User Defined Encoder
Selected bitrate : 1024 kBit/s
Quality : High
Add ID3 tag : No
Command line compressor : C:\Arquivos de programas\Exact Audio Copy\Flac\flac.exe
Additional command line options : -8 -A tukey(0.25) -A gauss(0.1875) -b 4096 -V -T "artist=%a" -T "title=%t" -T "album=%g" -T "date=%y" -T "tracknumber=%n" -T "genre=%m" %s –sector-align


TOC of the extracted CD

Track | Start | Length | Start sector | End sector
––––––––––––––––––––––––––––-
1 | 0:00.00 | 24:51.35 | 0 | 111859
2 | 24:51.35 | 3:54.42 | 111860 | 129451
3 | 28:46.02 | 9:48.40 | 129452 | 173591
4 | 38:34.42 | 7:23.15 | 173592 | 206831


Track 1

Filename C:\Documents and Settings\Nelson\Meus documentos\My Music\01 - Flower Travellin' Band - Hiroshima.wav

Pre-gap length 0:00:02.00

Peak level 100.0 %
Track quality 99.9 %
Test CRC 9F1AA9DC
Copy CRC 9F1AA9DC
Copy OK

Track 2

Filename C:\Documents and Settings\Nelson\Meus documentos\My Music\02 - Flower Travellin' Band - Blue Suede Shoes.wav

Pre-gap length 0:00:00.97

Peak level 100.0 %
Track quality 100.0 %
Test CRC 395C4262
Copy CRC 395C4262
Copy OK

Track 3

Filename C:\Documents and Settings\Nelson\Meus documentos\My Music\03 - Flower Travellin' Band - Satori Pt. 2.wav

Peak level 100.0 %
Track quality 100.0 %
Test CRC ED42D18C
Copy CRC ED42D18C
Copy OK

Track 4

Filename C:\Documents and Settings\Nelson\Meus documentos\My Music\04 - Flower Travellin' Band - After The Concert.wav

Pre-gap length 0:00:06.46

Peak level 100.0 %
Track quality 100.0 %
Test CRC 1483515D
Copy CRC 1483515D
Copy OK

No errors occurred

End of status report

[CUETools log; Date: 27.10.2017 12:26:35; Version: 2.1.4]
[CTDB TOCID: VH1nLZUmoc3fTr98aMMygTVagd8-] found.
Track | CTDB Status
1 | (12/18) Accurately ripped
2 | (12/18) Accurately ripped
3 | (12/18) Accurately ripped
4 | (12/18) Accurately ripped
[AccurateRip ID: 00097ca8-0023b6fd-310ac504] found.
Track [ CRC | V2 ] Status
01 [c714b1c3|9a9f85b7] (00+05/10) Accurately ripped
02 [442e8436|091c4ee0] (00+05/10) Accurately ripped
03 [a9d75b62|f7d291bc] (00+05/10) Accurately ripped
04 [e83c03d9|fa223de0] (00+05/10) Accurately ripped
Offsetted by 678:
01 [cc7a596b] (03/10) Accurately ripped
02 [aa0e7d15] (03/10) Accurately ripped
03 [45ce12a3] (03/10) Accurately ripped
04 [6ace9659] (03/10) Accurately ripped

Track Peak [ CRC32 ] [W/O NULL] [ LOG ]
– 100,0 [93DE853F] [48E45A86]
01 100,0 [9F1AA9DC] [1360E1C8] CRC32
02 100,0 [395C4262] [1062FA40] CRC32
03 100,0 [ED42D18C] [91031EA7] CRC32
04 100,0 [1483515D] [5EF5B82D] CRC32

Thanks to nelwizard