Subcategories

Flower Travellin' Band - Satori (1971) [Reissue 1998]

Posted By: gribovar
Flower Travellin' Band - Satori (1971) [Reissue 1998]

Flower Travellin' Band - Satori (1971) [Reissue 1998]
EAC Rip | FLAC (image+.cue+log) - 317 MB | MP3 CBR 320 kbps (LAME 3.93) - 109 MB | Covers (10 MB) included
Genre: Progressive/Psychedelic Rock | RAR 3% Rec. | Label: Warner Music Japan (WPC6-8425)

Flower Travelling Band was Japan's answer to Led Zeppelin meeting Blue Cheer and Black Sabbath at the Ash Ra Temple. Simply put, they played grand, spacey, tripped-out hard rock with a riffy base that was only two steps removed from the blues, but their manner of interpreting those steps came from an acid trip. Flower Travelling Band was an entity unto itself. There are five tracks on this set, originally released in 1971 as the band's second album proper. It has been reissued on CD by WEA International in Japan, with the cover depicting a silhouette drawing of the Buddha in meditative equipoise filled in with sketches of an inner universe mandala of the sacred Mount Meru, stupas, and the hash smoking caterpillar from Alice in Wonderland, Japanese sci-fi robot cartoons, and more. And the music is reflected in this inner universal realm on five different sections of Satori. From power chords to Eastern-tinged, North African, six-string freakouts, to crashing tom toms, to basses blasting into the red zone, Satori is a journey to the center of someplace that seems familiar but has never before been visited. It is a new sonic universe constructed from cast-off elements of the popular culture of the LSD generation. Forget everything you know about hard rock from the 1970s until you've put this one through your headphones. It's monolithic, expansive, flipped to wig city, and full of a beach blanket bong-out muscularity. In other words, this is a "real" classic and worth any price you happen to pay for it.

Tracklist:
01. Satori Part 1
02. Satori Part 2
03. Satori Part 3
04. Satori Part 4
05. Satori Part 5

Total time: 41:55

Exact Audio Copy V0.99 prebeta 4 from 23. January 2008

Отчёт EAC об извлечении, выполненном 4. октября 2009, 0:51

Flower Travellin' Band / Satori

Дисковод: _NEC DVD_RW ND-4551A Adapter: 0 ID: 0

Режим чтения : Достоверность
Использование точного потока : Да
Отключение кэша аудио : Да
Использование указателей C2 : Нет

Коррекция смещения при чтении : 48
Способность читать области Lead-in и Lead-out : Нет
Заполнение пропущенных сэмплов тишиной : Да
Удаление блоков с тишиной в начале и конце : Нет
При вычислениях CRC использовались нулевые сэмплы : Да
Интерфейс : Установленный внешний ASPI-интерфейс

Выходной формат : Пользовательский кодировщик
Выбранный битрейт : 768 kBit/s
Качество : Высокий
Добавление ID3-тэга : Да
Утилита сжатия : C:\Program Files\Exact Audio Copy\Flac\flac.exe
Дополнительные параметры : -8 -V %s -o %d


TOC извлечённого CD

Трек | Старт | Длительность | Начальный сектор | Конечный сектор
––––––––––––––––––––––––––––––––––-
1 | 0:00.00 | 5:20.40 | 0 | 24039
2 | 5:20.40 | 7:01.62 | 24040 | 55676
3 | 12:22.27 | 10:40.13 | 55677 | 103689
4 | 23:02.40 | 10:57.57 | 103690 | 153021
5 | 34:00.22 | 7:55.00 | 153022 | 188646


Характеристики диапазона извлечения и сообщения об ошибках

Выбранный диапазон

Имя файла D:\Torrent\CD\Flower Travellin' Band\Flower Travellin' Band Satori\Flower Travellin' Band - Satori.wav

Пиковый уровень 100.0 %
Качество диапазона 100.0 %
CRC копии 90488F04
Копирование… OK

Ошибок не произошло

Конец отчёта

[CUETools log; Date: 31.10.2017 20:57:39; Version: 2.1.4]
[CTDB TOCID: MaXJp7XdYL5_xsCEDo_akM05URY-] found.
Track | CTDB Status
1 | (36/36) Accurately ripped
2 | (36/36) Accurately ripped
3 | (36/36) Accurately ripped
4 | (36/36) Accurately ripped
5 | (36/36) Accurately ripped
[AccurateRip ID: 00080314-00268e90-3009d305] found.
Track [ CRC | V2 ] Status
01 [c1a74b30|b7e58111] (11+15/26) Accurately ripped
02 [6cbd966f|baf4dfcf] (11+15/26) Accurately ripped
03 [707f8065|b2fe95fe] (11+15/26) Accurately ripped
04 [5ac8197c|18487324] (11+15/26) Accurately ripped
05 [622ef368|5d536c75] (11+15/26) Accurately ripped
Offsetted by -35:
01 [6c0b29b5] (00/26) No match (V2 was not tested)
02 [45ace391] (00/26) No match (V2 was not tested)
03 [0608ddb1] (00/26) No match (V2 was not tested)
04 [6c9be04e] (00/26) No match (V2 was not tested)
05 [dda14fe5] (00/26) No match (V2 was not tested)

Track Peak [ CRC32 ] [W/O NULL] [ LOG ]
– 100,0 [90488F04] [923C4983] CRC32
01 100,0 [AC174155] [50B0E1D8]
02 100,0 [361EE32B] [C9708333]
03 100,0 [60CCEB56] [4DA52C6B]
04 100,0 [AB1E9F65] [59F1D783]
05 100,0 [D681C97C] [F36D05FC]

Thanks to apsolutelyfree

See also:
Flower Travellin' Band - Make Up (1973) [Reissue 2005]