Subcategories

Foreigner - Foreigner With The 21st Century Symphony Orchestra & Chorus (Live) (2018)

Posted By: popsakov
Foreigner - Foreigner With The 21st Century Symphony Orchestra & Chorus (Live) (2018)

Foreigner - Foreigner With The 21st Century Symphony Orchestra & Chorus (Live) (2018)
EAC Rip | FLAC (Img) + Cue + Log ~ 587 Mb | Full Scans (PNG, 400 dpi) ~ 281 Mb | RAR 5% Recovery
Classic Rock, Symphonic Rock | Ear Musuc #0212615EMU

Foreigner is universally hailed as one of the most popular rock bands in the world, racking up scores of smash hits, multi-platinum albums and sold out concert tours. From 'Cold As Ice' to 'Hot Blooded', 'Urgent' to 'Juke Box Hero' and 'Waiting for a Girl Like You'. Foreigner's thrilling mix of blustery blues and impeccably crafted pop continues to captivate generation after generation of music fans.

Today, over 80 million albums later, Foreigner is an ensemble of talented musicians each adding their individual credentials to make the band stronger and more powerful than ever. Besides founding member and leader Mick Jones on lead guitar and vocals, the band s line up consists of Kelly Hansen (Ex-Hurricane) as lead singer, Tom Gimbel ( Aerosmith) on guitar, saxophone, flute, and backing vocals; Jeff Jacobs on keyboards, Jeff Pilson (Ex-Dokken, Dio and MSG) on bass; and Jason Bonham (son of Led Zeppelin's drummer John Bonham) on drums.

This magnificent concert was recorded at KKL Luzern, Switzerland on May 20th and 21st 2017 and thus became the very first Foreigner album, recorded with orchestra and choir. Together with The 21st Century Symphony Orchestra & Chorus, the performance showcases some of rock n' roll's most enduring anthems and countless fan favorites. Featuring original new arrangements and instrumentations, Foreigner's signature songs can be enjoyed from a completely new perspective and with fantastic sound quality.

***************

Foreigner - Foreigner With The 21st Century Symphony Orchestra & Chorus (Live) (2018)

Track List:

01. Overture [3:33]
02. Blue Morning Blue Day [3:21]
03. Cold As Ice [5:53]
04. Waiting For A Girl Like You [5:49]
05. Say You Will [4:25]
06. When It Comes To Love [5:51]
07. That Was Yesterday [5:38]
08. Feels Like The First Time [5:20]
09. Starrider [5:13]
10. Double Vision [4:47]
11. Fool For You Anyway [4:37]
12. Urgent [7:59]
13. Jukebox Hero [11:05]
14. I Want To Know What Love Is [6:27]

Exact Audio Copy V1.0 beta 3 from 29. August 2011

EAC extraction logfile from 7. May 2018, 0:35

Foreigner / Foreigner with the 21st Century Orchestra and Choir

Used drive : PIONEER BD-RW BDR-TD03 Adapter: 0 ID: 1

Read mode : Secure
Utilize accurate stream : Yes
Defeat audio cache : Yes
Make use of C2 pointers : No

Read offset correction : 667
Overread into Lead-In and Lead-Out : No
Fill up missing offset samples with silence : Yes
Delete leading and trailing silent blocks : No
Null samples used in CRC calculations : Yes
Used interface : Native Win32 interface for Win NT & 2000

Used output format : User Defined Encoder
Selected bitrate : 768 kBit/s
Quality : High
Add ID3 tag : No
Command line compressor : C:\Program Files (x86)\Exact Audio Copy\FLAC\FLAC.EXE
Additional command line options : -6 -V -T "ARTIST=%artist%" -T "TITLE=%title%" -T "ALBUM=%albumtitle%" -T "DATE=%year%" -T "TRACKNUMBER=%tracknr%" -T "GENRE=%genre%" -T "COMMENT=%comment%" -T "BAND=%albuminterpret%" -T "ALBUMARTIST=%albuminterpret%" -T "COMPOSER=%composer%" %haslyrics%–tag-from-file=LYRICS="%lyricsfile%"%haslyrics% -T "DISCNUMBER=%cdnumber%" -T "TOTALDISCS=%totalcds%" -T "TOTALTRACKS=%numtracks%" %hascover%–picture="%coverfile%"%hascover% %source% -o %dest%


TOC of the extracted CD

Track | Start | Length | Start sector | End sector
––––––––––––––––––––––––––––-
1 | 0:00.00 | 3:33.37 | 0 | 16011
2 | 3:33.37 | 3:20.62 | 16012 | 31073
3 | 6:54.24 | 5:52.53 | 31074 | 57526
4 | 12:47.02 | 5:49.16 | 57527 | 83717
5 | 18:36.18 | 4:24.73 | 83718 | 103590
6 | 23:01.16 | 5:50.73 | 103591 | 129913
7 | 28:52.14 | 5:37.44 | 129914 | 155232
8 | 34:29.58 | 5:19.70 | 155233 | 179227
9 | 39:49.53 | 5:12.51 | 179228 | 202678
10 | 45:02.29 | 4:47.15 | 202679 | 224218
11 | 49:49.44 | 4:36.66 | 224219 | 244984
12 | 54:26.35 | 7:58.68 | 244985 | 280902
13 | 62:25.28 | 11:05.06 | 280903 | 330783
14 | 73:30.34 | 6:26.69 | 330784 | 359802


Range status and errors

Selected range

Filename C:\Users\Deris\Desktop\ForeignOrch\Foreigner - Foreigner with the 21st Century Orchestra and Choir.wav

Peak level 89.1 %
Extraction speed 5.2 X
Range quality 100.0 %
Test CRC DB43CD5C
Copy CRC DB43CD5C
Copy OK

No errors occurred


AccurateRip summary

Track 1 not present in database
Track 2 not present in database
Track 3 not present in database
Track 4 not present in database
Track 5 not present in database
Track 6 not present in database
Track 7 not present in database
Track 8 not present in database
Track 9 not present in database
Track 10 not present in database
Track 11 not present in database
Track 12 not present in database
Track 13 not present in database
Track 14 not present in database

None of the tracks are present in the AccurateRip database

End of status report

–– CUETools DB Plugin V2.1.3

[CTDB TOCID: wrjiI8g5GDUqg0cxbNAtgJJY014-] found, Submit result: wrjiI8g5GDUqg0cxbNAtgJJY014- has been confirmed
[ee46130c] (20/21) Accurately ripped
[b3911cbd] (01/21) No match


==== Log checksum 3A8BED24339F10ED70CDF813BC23EFB3743023E56FEAF6ADEF91C0A53E27AD32 ====

foobar2000 1.3.16 / Dynamic Range Meter 1.1.1
log date: 2018-05-11 08:48:32

––––––––––––––––––––––––––––––––––––––––
Analyzed: Foreigner / Foreigner with the 21st Century Orchestra and Choir
––––––––––––––––––––––––––––––––––––––––

DR Peak RMS Duration Track
––––––––––––––––––––––––––––––––––––––––
DR11 -1.00 dB -15.39 dB 3:33 01-Overture
DR7 -2.10 dB -9.95 dB 3:21 02-Blue Morning Blue Day
DR8 -2.00 dB -11.53 dB 5:53 03-Cold As Ice
DR8 -1.26 dB -10.47 dB 5:49 04-Waiting For A Girl Like You
DR7 -2.30 dB -11.80 dB 4:25 05-Say You Will
DR9 -1.50 dB -13.68 dB 5:51 06-When It Comes To Love
DR8 -1.50 dB -12.32 dB 5:38 07-That Was Yesterday
DR8 -1.40 dB -10.43 dB 5:20 08-Feels Like The First Time
DR7 -1.80 dB -11.29 dB 5:13 09-Starrider
DR7 -1.80 dB -10.65 dB 4:47 10-Double Vision
DR8 -1.20 dB -10.88 dB 4:37 11-Fool For You Anyway
DR7 -1.60 dB -10.15 dB 7:59 12-Urgent
DR8 -1.30 dB -11.73 dB 11:05 13-Jukebox Hero
DR6 -1.60 dB -9.74 dB 6:27 14-I Want To Know What Love Is
––––––––––––––––––––––––––––––––––––––––

Number of tracks: 14
Official DR value: DR8

Samplerate: 44100 Hz
Channels: 2
Bits per sample: 16
Bitrate: 978 kbps
Codec: FLAC
================================================================================

[CUETools log; Date: 11.05.2018 8:40:02; Version: 2.1.6]
[CTDB TOCID: wrjiI8g5GDUqg0cxbNAtgJJY014-] found.
Track | CTDB Status
1 | (31/31) Accurately ripped
2 | (31/31) Accurately ripped
3 | (31/31) Accurately ripped
4 | (31/31) Accurately ripped
5 | (31/31) Accurately ripped
6 | (31/31) Accurately ripped
7 | (31/31) Accurately ripped
8 | (31/31) Accurately ripped
9 | (31/31) Accurately ripped
10 | (31/31) Accurately ripped
11 | (30/31) Accurately ripped
12 | (31/31) Accurately ripped
13 | (31/31) Accurately ripped
14 | (30/31) Accurately ripped
[AccurateRip ID: 00249db6-0190e348-c212bd0e] disk not present in database.

Track Peak [ CRC32 ] [W/O NULL] [ LOG ]
– 89,1 [DB43CD5C] [9AB9AB57] CRC32
01 89,1 [BA1C79C0] [2CAA8D5E]
02 78,5 [FE857E65] [EA210C07]
03 79,4 [FC6CF53C] [631D5F9C]
04 86,5 [ECDE3FD1] [904D1F06]
05 76,7 [85C87798] [A1C0095B]
06 84,1 [3DE35619] [AE105570]
07 84,1 [33F2B67B] [254402AF]
08 85,1 [DA3E66EC] [C4705A87]
09 81,2 [1E7F792D] [584A0991]
10 81,2 [1AF05D25] [A06CF663]
11 87,0 [034DC86B] [31B7DDFE]
12 83,1 [69C7F665] [EB3B7048]
13 86,1 [52EE5310] [5EBC2C37]
14 83,1 [35B207B6] [67A47E68]

Foreigner - Foreigner With The 21st Century Symphony Orchestra & Chorus (Live) (2018)

All thanks go to Boris1

>>> Foreigner in my Blog <<<

Download from icerbox.com: