Subcategories
Tags
Language
Tags

Francis Lai - A Man And A Woman (Un Homme Et Une Femme): Original MGM Motion Picture Soundtrack (1966) RM 2012

Posted By: Efgrapha
Francis Lai - A Man And A Woman (Un Homme Et Une Femme): Original MGM Motion Picture Soundtrack (1966) RM 2012

Francis Lai - A Man And A Woman [Un Homme Et Une Femme] (1966)
Original MGM Motion Picture Soundtrack, Remastered Limited Edition 2012

EAC | FLAC (Image) + cue.+log ~ 333 Mb | Mp3, CBR320 kbps ~ 149 Mb
Label: Kritzerland | # KR 20021-5 | 01:00:55 | Scans included
Soundtrack, Easy Listening, Jazz Pop, Bossa Nova, French Pop

The first presentation of A Man and a Woman on CD in stereo – from the original album masters housed in the MGM vaults, in both French and English versions.

One of the finest soundtrack albums of the 1960s came in 1966, when Francis Lai composed much of the music for Claude Lelouch's French film A Man and a Woman (Un Homme et une Femme in French). Most European films enjoy very little publicity in the U.S., but A Man and a Woman was an exception because the soundtrack was so superb. With this classic LP, Lai and his allies (who include arrangers Maurice Vander and Ivan Julien) brought together French pop, jazz, and the Brazilian bossa nova (which Antonio Carlos Jobim, Stan Getz, and João Gilberto had popularized in the early 1960s). The bossa nova was as hot in Europe as it was in North America, and France's interest in Brazilian music is underscored by sensuous, caressing Lai offerings like "Aujourd'hui C'est Toi" and the famous title song – all of which feature French vocalists Nicole Croisille and/or Pierre Barouh. While Lai composed most of the melodies, Barouh provided the French lyrics – including some lyrics that he wrote for Brazilian composer Baden Powell's "Samba Saravah." Barouh has a soft, gentle quality to his voice, and he frequently brings to mind another gentle singer: João Gilberto. A five-star collection of mood music, this soundtrack has held up extremely well over the years.

Review by Alex Henderson, Allmusic.com

Francis Lai - A Man And A Woman (Un Homme Et Une Femme): Original MGM Motion Picture Soundtrack (1966) RM 2012


Francis Lai at Allmusic
Francis Lai at Wiki

Film at IMDB
Film at Wiki

Tracklist:

Un Homme Et Une Femme:

01. Francis Lai - Un Homme Et Une Femme (02:43)
02. Pierre Barouh - Samba Saravah (04:34)
03. Nicole Croisille - Aujourd’Hui C’Est Toi (02:05)
04. Nicole Croisille & Pierre Barouh - Un Homme Et Une Femme (02:37)
05. Francis Lai - Plus Fort Que Nous (03:18)
06. Francis Lai - Aujourd’Hui C’Est Toi (02:23)
07. Pierre Barouh - A L’Ombre De Nous (04:58)
08. Nicole Croisille & Pierre Barouh - Plus Fort Que Nous (03:44)
09. Francis Lai - A 200 A L'heure (02:31)

A Man And A Woman:

10. Francis Lai - A Man And A Woman (02:42)
11. Pierre Barouh - My Heart Loves The Samba (04:25)
12. Nicole Croisille - All At Once Itҳ Love (02:02)
13. Nicole Croisille & Pierre Barouh - A Man And A Woman (02:38)
14. Francis Lai - Love Is Far Stronger Than We (03:17)
15. Francis Lai - All At Once It's Love (02:22)
16. Pierre Barouh - The Shadows Of Our Love (04:52)
17. Nicole Croisille & Pierre Barouh - Love Is Far Stronger Than We (03:44)
18. Francis Lai - A Man And A Woman (02:31)
19. Nicole Croisille & Pierre Barouh - A Man And A Woman (Alternate Take) (02:38)


Exact Audio Copy V1.0 beta 3 from 29. August 2011

EAC extraction logfile from 8. March 2013, 12:46

Francis Lai / Un Homme Et Une Femme / A Man And A Woman

Used drive : TSSTcorpCDDVDW SH-S202H Adapter: 0 ID: 0

Read mode : Secure
Utilize accurate stream : Yes
Defeat audio cache : Yes
Make use of C2 pointers : No

Read offset correction : 6
Overread into Lead-In and Lead-Out : No
Fill up missing offset samples with silence : Yes
Delete leading and trailing silent blocks : No
Null samples used in CRC calculations : Yes
Used interface : Native Win32 interface for Win NT & 2000

Used output format : Internal WAV Routines
Sample format : 44.100 Hz; 16 Bit; Stereo


TOC of the extracted CD

Track | Start | Length | Start sector | End sector
––––––––––––––––––––––––––––-
1 | 0:00.00 | 2:45.14 | 0 | 12388
2 | 2:45.14 | 4:36.56 | 12389 | 33144
3 | 7:21.70 | 2:07.26 | 33145 | 42695
4 | 9:29.21 | 2:39.66 | 42696 | 54686
5 | 12:09.12 | 3:20.24 | 54687 | 69710
6 | 15:29.36 | 2:25.58 | 69711 | 80643
7 | 17:55.19 | 5:00.56 | 80644 | 103199
8 | 22:56.00 | 3:46.52 | 103200 | 120201
9 | 26:42.52 | 2:36.63 | 120202 | 131964
10 | 29:19.40 | 2:44.14 | 131965 | 144278
11 | 32:03.54 | 4:27.48 | 144279 | 164351
12 | 36:31.27 | 2:04.60 | 164352 | 173711
13 | 38:36.12 | 2:40.69 | 173712 | 185780
14 | 41:17.06 | 3:19.29 | 185781 | 200734
15 | 44:36.35 | 2:24.35 | 200735 | 211569
16 | 47:00.70 | 4:54.22 | 211570 | 233641
17 | 51:55.17 | 3:46.69 | 233642 | 250660
18 | 55:42.11 | 2:33.43 | 250661 | 262178
19 | 58:15.54 | 2:38.10 | 262179 | 274038


Range status and errors

Selected range

Filename D:\Torrent\Мои раздачи\A Man And A Woman - Un Homme Et Une Femme\Francis Lai - Un Homme Et Une Femme , A Man And A Woman.wav

Peak level 97.3 %
Extraction speed 5.8 X
Range quality 100.0 %
Test CRC FF58C042
Copy CRC FF58C042
Copy OK

No errors occurred


AccurateRip summary

Track 1 not present in database
Track 2 not present in database
Track 3 not present in database
Track 4 not present in database
Track 5 not present in database
Track 6 not present in database
Track 7 not present in database
Track 8 not present in database
Track 9 not present in database
Track 10 not present in database
Track 11 not present in database
Track 12 not present in database
Track 13 not present in database
Track 14 not present in database
Track 15 not present in database
Track 16 not present in database
Track 17 not present in database
Track 18 not present in database
Track 19 not present in database

None of the tracks are present in the AccurateRip database

End of status report

==== Log checksum 2833D7255FDA9F2C3D5BA975CCF98814AB28900C0D98ED8FB2A32A356784B61B ====

foobar2000 1.2 / Dynamic Range Meter 1.1.1
log date: 2013-04-23 19:52:03

––––––––––––––––––––––––––––––––––––––––
Analyzed: Francis Lai / Un Homme Et Une Femme / A Man And A Woman
––––––––––––––––––––––––––––––––––––––––

DR Peak RMS Duration Track
––––––––––––––––––––––––––––––––––––––––
DR9 -3.99 dB -14.53 dB 2:45 01-Un Homme Et Une Femme
DR8 -4.54 dB -15.48 dB 3:20 05-Plus Fort Que Nous
DR10 -1.80 dB -14.58 dB 2:26 06-Aujourd’Hui C’Est Toi
DR9 -4.47 dB -16.05 dB 2:37 09-A 200 A L'heure
DR9 -2.66 dB -14.48 dB 2:44 10-A Man And A Woman
DR9 -4.38 dB -15.80 dB 3:19 14-Love Is Far Stronger Than We
DR10 -1.00 dB -14.75 dB 2:24 15-All At Once It’s Love
DR9 -4.52 dB -15.99 dB 2:34 18-A Man And A Woman
––––––––––––––––––––––––––––––––––––––––

Number of tracks: 8
Official DR value: DR9

Samplerate: 44100 Hz
Channels: 2
Bits per sample: 16
Bitrate: 743 kbps
Codec: FLAC
================================================================================

––––––––––––––––––––––––––––––––––––––––
Analyzed: Nicole Croisille & Pierre Barouh / Un Homme Et Une Femme / A Man And A Woman
––––––––––––––––––––––––––––––––––––––––

DR Peak RMS Duration Track
––––––––––––––––––––––––––––––––––––––––
DR9 -2.93 dB -13.92 dB 2:40 04-Un Homme Et Une Femme
DR9 -4.29 dB -15.33 dB 3:47 08-Plus Fort Que Nous
DR11 -1.95 dB -14.82 dB 2:41 13-A Man And A Woman
DR10 -2.67 dB -15.56 dB 3:47 17-Love Is Far Stronger Than We
DR10 -0.23 dB -13.61 dB 2:38 19-A Man And A Woman (Alternate Take)
––––––––––––––––––––––––––––––––––––––––

Number of tracks: 5
Official DR value: DR10

Samplerate: 44100 Hz
Channels: 2
Bits per sample: 16
Bitrate: 743 kbps
Codec: FLAC
================================================================================

––––––––––––––––––––––––––––––––––––––––
Analyzed: Nicole Croisille / Un Homme Et Une Femme / A Man And A Woman
––––––––––––––––––––––––––––––––––––––––

DR Peak RMS Duration Track
––––––––––––––––––––––––––––––––––––––––
DR9 -4.46 dB -16.05 dB 2:07 03-Aujourd’Hui C’Est Toi
DR10 -3.28 dB -15.37 dB 2:05 12-All At Once It’s Love
––––––––––––––––––––––––––––––––––––––––

Number of tracks: 2
Official DR value: DR9

Samplerate: 44100 Hz
Channels: 2
Bits per sample: 16
Bitrate: 743 kbps
Codec: FLAC
================================================================================

––––––––––––––––––––––––––––––––––––––––
Analyzed: Pierre Barouh / Un Homme Et Une Femme / A Man And A Woman
––––––––––––––––––––––––––––––––––––––––

DR Peak RMS Duration Track
––––––––––––––––––––––––––––––––––––––––
DR9 -4.24 dB -15.63 dB 4:37 02-Samba Saravah
DR10 -4.01 dB -16.27 dB 5:01 07-A L’Ombre De Nous
DR11 -2.61 dB -16.68 dB 4:28 11-My Heart Loves The Samba
DR12 -1.00 dB -17.80 dB 4:54 16-The Shadows Of Our Love
––––––––––––––––––––––––––––––––––––––––

Number of tracks: 4
Official DR value: DR11

Samplerate: 44100 Hz
Channels: 2
Bits per sample: 16
Bitrate: 743 kbps
Codec: FLAC
================================================================================

Francis Lai - A Man And A Woman (Un Homme Et Une Femme): Original MGM Motion Picture Soundtrack (1966) RM 2012

Francis Lai - A Man And A Woman (Un Homme Et Une Femme): Original MGM Motion Picture Soundtrack (1966) RM 2012

All thanks to original uploader - Composer's fan

More Movies & Soundtracks in Efgrapha Blog