Subcategories

Franck-Emmanuel Comte, Le Concert de l'Hostel Dieu - Alessandro Scarlatti: Il Martirio di Sant’Orsola (2006)

Posted By: ArlegZ
Franck-Emmanuel Comte, Le Concert de l'Hostel Dieu - Alessandro Scarlatti: Il Martirio di Sant’Orsola (2006)

Franck-Emmanuel Comte, Le Concert de l'Hostel Dieu - Alessandro Scarlatti: Il Martirio di Sant’Orsola (2006)
EAC | FLAC | Image (Cue & Log) ~ 261 Mb | Total time: 59:20 | Scans included
Classical | Label: Ligia Digital | # Lidi 0202176-07 | Recorded: 2006

Il Martirio di Sant'Orsola was probably written and sung in Rome between 1695 and 1700. The identification of the author of the libretto and the circumstances of composition remain unknown. The handwritten score and its separate parts, preserved in the Bibliothèque Municipale de Lyon and returned here, is indeed the only European version of the work. It was copied for the Academy of Fine Arts of Lyon to which it belonged, probably by amateurs bringing back from their travels many works, as evidenced by the importance of the Italian music in the funds Lyons. The orators of Scarlatti were played from 1718 to 1731 at the Academy.

Performer:
Stéphanie Révidat, soprano
Marina Venant, soprano
Jean-Paul Bonnevalle, alto
François Roche, ténor
Benoît Arnould, basse
Chœur et orchestre du Concert de l’Hostel Dieu
Franck-Emmanuel Comte, direction

Track List:
01. Sinfonia
02. Coro di vergini a 3
03. Aria S. Orsola: Zeffiretti, semplicetti
04. Récit S. Orsola: Gran Rettor delle sfere
05. Récit Giesù: Tergi le luci belle
06. Aria Giesù: Sorgi vanne
07. Récit Giesù: E voi sorgete pure sangue del mio pattir
08. Aria Giesù: Con la fede che l'alma v'indora
09. Récit Florida: E qual soave accento
10. Aria Florida: Arcier divin
11. Récit, Ariette Giulio: Per eseguir l'Impero
12. Aria Giulio: Al suon delle trombe
13. Récit S. Orsola: Rreo fedele ch'al moi Giesu diletto
14. Récit Ereo: Per osservar devoto
15. Aria Ereo: Su vibratemi
16. Récit S. Orsola, Giulio: Tu superbo Tiranno che si pietoso
17. Trio S. Orsola, Florida, Ereo: Ti derido, ti sprezzo
18. Récit Giulio: O mie furie sopit
19. Duo Ereo, Florida: Dio clemente speranza de cori
20. S. Orsola, Ereo, Florida: O moi sposo immortale
21. Giulio, S. Orsola: Ah fermate
22. Aria S. Orsola: Quel bel'sole, io sola adoro
23. S. Orsola, Giulio: A che serbarmi in vita
24. Aria Giulio: Si cosi faro
25. Récit Giulio, S. Orsola: Gia tendo l'arco invitto
26. Aria S. Orsola: Deh volate bei dardi amorosi
27. Récit S. Orsola, Giulio: Una femina inerme
28. Aria S. Orsola: No strali soavi
29. Récit S. Orsola: Ma gia sento ch'il core
30. Aria Giesù: Vieni o sposa
31. Et incarnatus est (extract de la Messe Sainte Cecile)


Exact Audio Copy V1.3 from 2. September 2016

EAC extraction logfile from 5. December 2017, 18:58

Le Concert de l'Hostel Dieu / Scarlatti - Il Martirio di Sant'Orsola

Used drive : HL-DT-STDVDRAM GH24NS95 Adapter: 1 ID: 0

Read mode : Secure
Utilize accurate stream : Yes
Defeat audio cache : Yes
Make use of C2 pointers : No

Read offset correction : 6
Overread into Lead-In and Lead-Out : No
Fill up missing offset samples with silence : Yes
Delete leading and trailing silent blocks : No
Null samples used in CRC calculations : Yes
Used interface : Native Win32 interface for Win NT & 2000

Used output format : User Defined Encoder
Selected bitrate : 128 kBit/s
Quality : High
Add ID3 tag : No
Command line compressor : C:\Program Files\Exact Audio Copy\Flac\flac.exe
Additional command line options : -V -8 -T "Date=%year%" -T "Genre=%genre%" %source%


TOC of the extracted CD

Track | Start | Length | Start sector | End sector
––––––––––––––––––––––––––––-
1 | 0:00.00 | 3:26.50 | 0 | 15499
2 | 3:26.50 | 2:13.65 | 15500 | 25539
3 | 5:40.40 | 2:42.63 | 25540 | 37752
4 | 8:23.28 | 0:54.15 | 37753 | 41817
5 | 9:17.43 | 0:44.55 | 41818 | 45172
6 | 10:02.23 | 1:46.67 | 45173 | 53189
7 | 11:49.15 | 0:59.40 | 53190 | 57654
8 | 12:48.55 | 2:43.20 | 57655 | 69899
9 | 15:32.00 | 0:50.06 | 69900 | 73655
10 | 16:22.06 | 2:14.05 | 73656 | 83710
11 | 18:36.11 | 1:21.71 | 83711 | 89856
12 | 19:58.07 | 1:53.04 | 89857 | 98335
13 | 21:51.11 | 0:32.31 | 98336 | 100766
14 | 22:23.42 | 0:32.61 | 100767 | 103227
15 | 22:56.28 | 2:00.65 | 103228 | 112292
16 | 24:57.18 | 0:29.61 | 112293 | 114528
17 | 25:27.04 | 0:14.33 | 114529 | 115611
18 | 25:41.37 | 0:35.37 | 115612 | 118273
19 | 26:16.74 | 3:12.66 | 118274 | 132739
20 | 29:29.65 | 0:47.38 | 132740 | 136302
21 | 30:17.28 | 1:22.02 | 136303 | 142454
22 | 31:39.30 | 3:46.27 | 142455 | 159431
23 | 35:25.57 | 0:20.35 | 159432 | 160966
24 | 35:46.17 | 2:39.16 | 160967 | 172907
25 | 38:25.33 | 0:19.48 | 172908 | 174380
26 | 38:45.06 | 3:17.05 | 174381 | 189160
27 | 42:02.11 | 1:28.45 | 189161 | 195805
28 | 43:30.56 | 8:50.11 | 195806 | 235566
29 | 52:20.67 | 0:52.54 | 235567 | 239520
30 | 53:13.46 | 4:01.44 | 239521 | 257639
31 | 57:15.15 | 2:05.08 | 257640 | 267022


Range status and errors

Selected range

Filename C:\Program Files\Exact Audio Copy\Flac\Scarlatti - Il Martirio di Sant'Orsola.wav

Peak level 91.0 %
Extraction speed 7.2 X
Range quality 100.0 %
Test CRC 6C3F40F8
Copy CRC 6C3F40F8
Copy OK

No errors occurred

End of status report

==== Log checksum D2670F2FF1DF9A1E602D198916DC1E3287DEFDDE21BF3B232503190EF3B361FC ====

Franck-Emmanuel Comte, Le Concert de l'Hostel Dieu - Alessandro Scarlatti: Il Martirio di Sant’Orsola (2006)