Subcategories

Francois-Rene Duchâble - Frédéric Chopin: Polonaises (1997)

Posted By: tirexiss
Francois-Rene Duchâble - Frédéric Chopin: Polonaises (1997)

Francois-Rene Duchâble - Frédéric Chopin: Polonaises (1997)
EAC | FLAC (tracks+.cue, log) | Covers Included | 01:18:45 | 258 MB
Genre: Classical | Label: EMI Classics | Catalog: 7243 5 56458 2 1

Polonaise: almost always, as soon as the word is uttered, it conjures up the name of Frédéric Chopin. And what could be more natural with a creative genius who was constantly attracted to the genre? His first work, published in Warsaw, was entitled `Polonaise for pianoforte dedicated to her Excellency the Countess Victoire Skarbek by Friderik Chopin, aged eight years'; and right up to the concluding Polonaise-Fantaisie, Op.61, fourteen other similar compositions had punctuated the all-too-brief career of the Polish maestro. Before Chopin, a number of musicians had devoted themselves to the polonaise since its appearance in the sixteenth century under the name of `Polish Dance', before assuming that simply of `Polonaise' (`Polish') in the following century. Gradually this dance in triple time had extended its influence to the whole of Europe. Undoubtedly some admirable polonaises had been written, but at the expense of the original essence of a proud, manly and noble dance. To Frédéric Chopin fell the honour of reviving that initial virility - of recreating the polonaise.

Francois-Rene Duchâble - Frédéric Chopin: Polonaises (1997)

Track List:

01. Polonaise № 7 As-Dur Op. 61 «Fantaisie» [11'13"]
02. Polonaise № 1 cis-moll Op. 26/1 [6'12"]
03. Polonaise № 2 es-moll Op. 26/2 [6'42"]
04. Polonaise № 3 A-Dur Op. 40/1 «Militaire» [4'17"]
05. Polonaise № 4 c-moll Op. 40/2 [4'46"]
06. Polonaise № 5 fis-moll Op. 44 [9'31"]
07. Polonaise № 6 As-Dur Op. 53 «Heroique» [6'33"]
08. Polonaise № 8 d-moll Op. 71/1 [4'25"]
09. Polonaise № 9 B-Dur Op. 71/2 [5'59"]
10. Polonaise № 10 f-moll Op. 71/3 [6'40"]
11. Andante Spianato And Grande Polonaise Es-Dur Op. 22 [12'34"]

Performers:
François-René Duchâble, piano

Exact Audio Copy V1.0 beta 4 from 7. December 2014

EAC extraction logfile from 22. March 2015, 23:58

Frédéric Chopin / Polonaises

Used drive : HL-DT-STRW/DVD GCC-4242N Adapter: 1 ID: 0

Read mode : Secure
Utilize accurate stream : Yes
Defeat audio cache : Yes
Make use of C2 pointers : No

Read offset correction : 102
Overread into Lead-In and Lead-Out : No
Fill up missing offset samples with silence : Yes
Delete leading and trailing silent blocks : No
Null samples used in CRC calculations : Yes
Used interface : Native Win32 interface for Win NT & 2000
Gap handling : Appended to previous track

Used output format : User Defined Encoder
Selected bitrate : 1024 kBit/s
Quality : High
Add ID3 tag : No
Command line compressor : C:\Program Files\Exact Audio Copy\FLAC\FLAC.EXE
Additional command line options : -8 -V -T "ARTIST=%artist%" -T "TITLE=%title%" -T "ALBUM=%albumtitle%" -T "DATE=%year%" -T "TRACKNUMBER=%tracknr%" -T "GENRE=%genre%" -T "PERFORMER=%albuminterpret%" -T "COMPOSER=%composer%" %haslyrics%–tag-from-file=LYRICS="%lyricsfile%"%haslyrics% -T "ALBUMARTIST=%albumartist%" -T "DISCNUMBER=%cdnumber%" -T "TOTALDISCS=%totalcds%" -T "TOTALTRACKS=%numtracks%" -T "COMMENT=%comment%" %source% -o %dest%


TOC of the extracted CD

Track | Start | Length | Start sector | End sector
––––––––––––––––––––––––––––-
1 | 0:00.00 | 11:12.52 | 0 | 50451
2 | 11:12.52 | 6:11.63 | 50452 | 78339
3 | 17:24.40 | 6:42.25 | 78340 | 108514
4 | 24:06.65 | 4:17.15 | 108515 | 127804
5 | 28:24.05 | 4:46.12 | 127805 | 149266
6 | 33:10.17 | 9:31.10 | 149267 | 192101
7 | 42:41.27 | 6:33.15 | 192102 | 221591
8 | 49:14.42 | 4:25.20 | 221592 | 241486
9 | 53:39.62 | 5:59.18 | 241487 | 268429
10 | 59:39.05 | 6:39.70 | 268430 | 298424
11 | 66:19.00 | 12:34.20 | 298425 | 354994


Track 1

Filename C:\EAC\01 - N° 7 in A flat major Op.61 ''Fantaisie''.wav

Pre-gap length 0:00:02.00

Peak level 95.9 %
Extraction speed 2.8 X
Track quality 100.0 %
Copy CRC B3AA3859
Accurately ripped (confidence 5) [D2DBFA46] (AR v2)
Copy OK

Track 2

Filename C:\EAC\02 - N° 1 in C sharp minor Op.26 n° 1.wav

Pre-gap length 0:00:06.89

Peak level 89.4 %
Extraction speed 2.9 X
Track quality 99.9 %
Copy CRC 80202C72
Accurately ripped (confidence 5) [C5287D5A] (AR v2)
Copy OK

Track 3

Filename C:\EAC\03 - N° 2 in E flat minor Op.26 n° 2.wav

Pre-gap length 0:00:04.73

Peak level 96.1 %
Extraction speed 3.5 X
Track quality 100.0 %
Copy CRC EBB8640D
Accurately ripped (confidence 5) [7B5A4BB8] (AR v2)
Copy OK

Track 4

Filename C:\EAC\04 - N° 3 in A major Op. 40 n°40 n° 1 ''Militaire''.wav

Pre-gap length 0:00:06.20

Peak level 90.0 %
Extraction speed 3.5 X
Track quality 100.0 %
Copy CRC C0D8EBE1
Accurately ripped (confidence 5) [34D09792] (AR v2)
Copy OK

Track 5

Filename C:\EAC\05 - N° 4 in C minor Op. 40 n° 2.wav

Pre-gap length 0:00:05.20

Peak level 88.2 %
Extraction speed 3.3 X
Track quality 99.9 %
Copy CRC E00102E9
Accurately ripped (confidence 5) [4400C1AB] (AR v2)
Copy OK

Track 6

Filename C:\EAC\06 - N° 5 in F sharp minor Op.44.wav

Pre-gap length 0:00:08.00

Peak level 97.6 %
Extraction speed 4.2 X
Track quality 100.0 %
Copy CRC 25C1B613
Accurately ripped (confidence 5) [FD3B0810] (AR v2)
Copy OK

Track 7

Filename C:\EAC\07 - N° 6 in A flat major Op.53 ''Héroique''.wav

Pre-gap length 0:00:05.82

Peak level 96.4 %
Extraction speed 4.3 X
Track quality 100.0 %
Copy CRC 935C4252
Accurately ripped (confidence 5) [CCC72022] (AR v2)
Copy OK

Track 8

Filename C:\EAC\08 - N° 8 in D minor Op.71 n° 1.wav

Pre-gap length 0:00:06.69

Peak level 96.4 %
Extraction speed 3.9 X
Track quality 99.9 %
Copy CRC B051B4D7
Accurately ripped (confidence 5) [4819A6D1] (AR v2)
Copy OK

Track 9

Filename C:\EAC\09 - N° 9 in B flat major Op.71 n° 2.wav

Pre-gap length 0:00:02.09

Peak level 92.1 %
Extraction speed 4.6 X
Track quality 100.0 %
Copy CRC 22B36D25
Accurately ripped (confidence 5) [B234C0EB] (AR v2)
Copy OK

Track 10

Filename C:\EAC\10 - N° 10 in F minor Op.71 n° 3.wav

Pre-gap length 0:00:06.30

Peak level 62.6 %
Extraction speed 4.8 X
Track quality 100.0 %
Copy CRC 5C55AA7E
Accurately ripped (confidence 5) [07533E18] (AR v2)
Copy OK

Track 11

Filename C:\EAC\11 - Andante spinato, in E flat major Op.22.wav

Pre-gap length 0:00:07.57

Peak level 99.4 %
Extraction speed 5.2 X
Track quality 100.0 %
Copy CRC F1D5F6ED
Accurately ripped (confidence 4) [404622A3] (AR v2)
Copy OK


All tracks accurately ripped

No errors occurred

End of status report

–– CUETools DB Plugin V2.1.4

[CTDB TOCID: u8JtECH5mzgvq3Vi1Q4ZO1jAUXE-] database access error: Le nom distant n'a pas pu être résolu: 'db.cuetools.net'


==== Log checksum A856142EA83230402B5789886D02B1FC8560AF9B48C0D48185021D972FBCFF78 ====

[CUETools log; Date: 14.05.2018 10:18:40; Version: 2.1.5]
[CTDB TOCID: u8JtECH5mzgvq3Vi1Q4ZO1jAUXE-] found.
Track | CTDB Status
1 | (10/10) Accurately ripped
2 | (10/10) Accurately ripped
3 | (10/10) Accurately ripped
4 | (10/10) Accurately ripped
5 | (10/10) Accurately ripped
6 | (10/10) Accurately ripped
7 | (10/10) Accurately ripped
8 | (10/10) Accurately ripped
9 | (10/10) Accurately ripped
10 | (10/10) Accurately ripped
11 | (10/10) Accurately ripped
[AccurateRip ID: 001fe992-010ff298-a6127d0b] found.
Track [ CRC | V2 ] Status
01 [05dc0a40|d2dbfa46] (02+08/10) Accurately ripped
02 [1939e597|c5287d5a] (02+08/10) Accurately ripped
03 [9b727670|7b5a4bb8] (02+08/10) Accurately ripped
04 [7cbc0ce4|34d09792] (02+08/10) Accurately ripped
05 [b08313aa|4400c1ab] (02+08/10) Accurately ripped
06 [b65273d6|fd3b0810] (02+08/10) Accurately ripped
07 [6bf347d9|ccc72022] (02+08/10) Accurately ripped
08 [5eab74d4|4819a6d1] (02+08/10) Accurately ripped
09 [7866d88a|b234c0eb] (02+08/10) Accurately ripped
10 [34fd4549|07533e18] (02+08/10) Accurately ripped
11 [a1522b76|404622a3] (02+07/09) Accurately ripped

Track Peak [ CRC32 ] [W/O NULL] [ LOG ]
– 99,4 [5682F40C] [9B646AFE]
01 95,9 [B3AA3859] [DDC8F9A0] CRC32
02 89,4 [80202C72] [E9F64226] CRC32
03 96,1 [EBB8640D] [7B0FBB3E] CRC32
04 90,0 [C0D8EBE1] [5619B3BD] CRC32
05 88,2 [E00102E9] [6652B4C0] CRC32
06 97,6 [25C1B613] [0E5365F3] CRC32
07 96,4 [935C4252] [F1F950EA] CRC32
08 96,4 [B051B4D7] [5D755CC4] CRC32
09 92,1 [22B36D25] [FC29AAC1] CRC32
10 62,6 [5C55AA7E] [E53BA4DE] CRC32
11 99,4 [F1D5F6ED] [BD815FE8] CRC32

Thanks to the Original ripper (unknown)!

Download: