Subcategories

Frank Sinatra - The Very Best Of Frank Sinatra (1997)

Posted By: popsakov
Frank Sinatra - The Very Best Of Frank Sinatra (1997)

Frank Sinatra - The Very Best Of Frank Sinatra (1997)
2CD | EAC Rip | FLAC (Img) + Cue + Log ~ 765 Mb
Full Scans (PNG, 400 dpi) ~ 258 Mb | RAR 5% Recovery
Jazz, Pop, Vocal, Standarts | Reprise Records #9 46589-2 / BMG Direct #D218847

The Very Best of Frank Sinatra is a simple double-disc collection of 40 Sinatra classics from his Reprise Recordings. For casual fans wanting something more than the single-disc The Very Good Years but don't want the four-disc The Reprise Collection, The Very Best of Frank Sinatra is ideal, since it contains all of the true essentials he recorded during the '60s and '70s, including "Summer Wind," "Strangers in the Night," "My Way," "It Was a Very Good Year," and "Theme From New York, New York."

***************

Frank Sinatra - The Very Best Of Frank Sinatra (1997)

Frank Sinatra - The Very Best Of Frank Sinatra (1997)

Track List CD1:

01. Stardust [2:48]
02. A Foggy Day [2:17]
03. Let's Fall In Love [2:11]
04. The Girl Next Door [3:18]
05. Old Devil Moon [2:57]
06. The Way You Look Tonight [3:22]
07. Fly Me To The Moon (In Other Words) [2:30]
08. Nice Work If You Can Get It [2:36]
09. I Get A Kick Out Of You [3:15]
10. Come Rain Or Come Shine [4:06]
11. Please Be Kind [2:42]
12. Don'cha Go 'Way Mad [3:13]
13. They Can't Take That Away From Me [2:41]
14. In The Wee Small Hours Of The Morning [2:44]
15. I've Got You Under My Skin [3:32]
16. Let's Face The Music And Dance [2:59]
17. Come Fly With Me [3:11]
18. My Kind Of Town [3:09]
19. Luck Be A Lady [5:15]
20. The Best Is Yet To Come [2:54]

Exact Audio Copy V1.0 beta 3 from 29. August 2011

EAC extraction logfile from 10. July 2017, 1:52

Frank Sinatra / The Very Best Of Frank Sinatra Disc 1

Used drive : PIONEER BD-RW BDR-TD03 Adapter: 0 ID: 1

Read mode : Secure
Utilize accurate stream : Yes
Defeat audio cache : Yes
Make use of C2 pointers : No

Read offset correction : 667
Overread into Lead-In and Lead-Out : No
Fill up missing offset samples with silence : Yes
Delete leading and trailing silent blocks : No
Null samples used in CRC calculations : Yes
Used interface : Native Win32 interface for Win NT & 2000

Used output format : User Defined Encoder
Selected bitrate : 768 kBit/s
Quality : High
Add ID3 tag : No
Command line compressor : C:\Program Files (x86)\Exact Audio Copy\FLAC\FLAC.EXE
Additional command line options : -6 -V -T "ARTIST=%artist%" -T "TITLE=%title%" -T "ALBUM=%albumtitle%" -T "DATE=%year%" -T "TRACKNUMBER=%tracknr%" -T "GENRE=%genre%" -T "COMMENT=%comment%" -T "BAND=%albuminterpret%" -T "ALBUMARTIST=%albuminterpret%" -T "COMPOSER=%composer%" %haslyrics%–tag-from-file=LYRICS="%lyricsfile%"%haslyrics% -T "DISCNUMBER=%cdnumber%" -T "TOTALDISCS=%totalcds%" -T "TOTALTRACKS=%numtracks%" %hascover%–picture="%coverfile%"%hascover% %source% -o %dest%


TOC of the extracted CD

Track | Start | Length | Start sector | End sector
––––––––––––––––––––––––––––-
1 | 0:00.00 | 2:48.12 | 0 | 12611
2 | 2:48.12 | 2:16.68 | 12612 | 22879
3 | 5:05.05 | 2:11.35 | 22880 | 32739
4 | 7:16.40 | 3:18.30 | 32740 | 47619
5 | 10:34.70 | 2:56.55 | 47620 | 60874
6 | 13:31.50 | 3:22.15 | 60875 | 76039
7 | 16:53.65 | 2:29.45 | 76040 | 87259
8 | 19:23.35 | 2:36.05 | 87260 | 98964
9 | 21:59.40 | 3:14.55 | 98965 | 113569
10 | 25:14.20 | 4:06.37 | 113570 | 132056
11 | 29:20.57 | 2:41.53 | 132057 | 144184
12 | 32:02.35 | 3:12.40 | 144185 | 158624
13 | 35:15.00 | 2:41.34 | 158625 | 170733
14 | 37:56.34 | 2:43.53 | 170734 | 183011
15 | 40:40.12 | 3:31.48 | 183012 | 198884
16 | 44:11.60 | 2:59.07 | 198885 | 212316
17 | 47:10.67 | 3:11.08 | 212317 | 226649
18 | 50:22.00 | 3:09.20 | 226650 | 240844
19 | 53:31.20 | 5:14.60 | 240845 | 264454
20 | 58:46.05 | 2:53.60 | 264455 | 277489


Range status and errors

Selected range

Filename C:\Users\Deris\Desktop\SinatBes\CD1\Frank Sinatra - The Very Best Of Frank Sinatra Disc 1.wav

Peak level 99.9 %
Extraction speed 2.0 X
Range quality 100.0 %
Test CRC D16B594B
Copy CRC D16B594B
Copy OK

No errors occurred


AccurateRip summary

Track 1 accurately ripped (confidence 68) [D74E8CAC] (AR v2)
Track 2 accurately ripped (confidence 68) [73D29013] (AR v2)
Track 3 accurately ripped (confidence 67) [29EA3ED0] (AR v2)
Track 4 accurately ripped (confidence 67) [1ED40E3C] (AR v2)
Track 5 accurately ripped (confidence 68) [059DD50A] (AR v2)
Track 6 accurately ripped (confidence 69) [B03E5A0B] (AR v2)
Track 7 accurately ripped (confidence 69) [89AC06A2] (AR v2)
Track 8 accurately ripped (confidence 68) [CEDE65F0] (AR v2)
Track 9 accurately ripped (confidence 69) [06EAD9F9] (AR v2)
Track 10 accurately ripped (confidence 68) [5B8CA186] (AR v2)
Track 11 accurately ripped (confidence 67) [87C48CA0] (AR v2)
Track 12 accurately ripped (confidence 66) [28CDD581] (AR v2)
Track 13 accurately ripped (confidence 68) [70890B4B] (AR v2)
Track 14 accurately ripped (confidence 67) [EFD83C7F] (AR v2)
Track 15 accurately ripped (confidence 69) [BA4557EE] (AR v2)
Track 16 accurately ripped (confidence 68) [A1DE8C64] (AR v2)
Track 17 accurately ripped (confidence 68) [650C8976] (AR v2)
Track 18 accurately ripped (confidence 69) [39C3057C] (AR v2)
Track 19 accurately ripped (confidence 66) [3B0190E9] (AR v2)
Track 20 accurately ripped (confidence 65) [0B7E4BC6] (AR v2)

All tracks accurately ripped

End of status report

–– CUETools DB Plugin V2.1.3

[CTDB TOCID: pm1zaGakT9Wc5uX.y.Gsnf7P3Ps-] found, Submit result: pm1zaGakT9Wc5uX.y.Gsnf7P3Ps- has been confirmed
[f89f2368] (120/126) Accurately ripped
[f9731de2] (001/126) No match
[e2229c7a] (001/126) No match
[9f6c74de] (001/126) No match
[df9591df] (001/126) No match
[5a59e460] (001/126) No match
[d9a91557] (001/126) No match


==== Log checksum 44A34DD19E3905E91DEB9F2FDBB1A91DD5FE4B1F4A1D35B1285247E9CDBF5629 ====

foobar2000 1.2.6 / Dynamic Range Meter 1.1.1
log date: 2017-08-11 12:59:44

––––––––––––––––––––––––––––––––––––––––
Analyzed: Frank Sinatra / The Very Best Of Frank Sinatra Disc 1
––––––––––––––––––––––––––––––––––––––––

DR Peak RMS Duration Track
––––––––––––––––––––––––––––––––––––––––
DR11 -0.83 dB -17.86 dB 2:48 01-Stardust
DR11 -2.24 dB -16.87 dB 2:17 02-A Foggy Day
DR11 -0.59 dB -16.41 dB 2:11 03-Let's Fall In Love
DR11 -1.22 dB -17.13 dB 3:18 04-The Girl Next Door
DR11 -1.08 dB -15.62 dB 2:57 05-Old Devil Moon
DR13 -0.20 dB -17.14 dB 3:22 06-The Way You Look Tonight
DR13 -0.18 dB -18.59 dB 2:30 07-Fly Me To The Moon (In Other Words)
DR13 -0.10 dB -16.89 dB 2:36 08-Nice Work If You Can Get It
DR11 -0.10 dB -14.23 dB 3:15 09-I Get A Kick Out Of You
DR12 -0.52 dB -16.76 dB 4:06 10-Come Rain Or Come Shine
DR12 -0.10 dB -17.91 dB 2:42 11-Please Be Kind
DR12 -0.10 dB -16.01 dB 3:13 12-Don'cha Go 'Way Mad
DR11 -0.88 dB -16.55 dB 2:41 13-They Can't Take That Away From Me
DR11 -6.78 dB -21.72 dB 2:44 14-In The Wee Small Hours Of The Morning
DR13 -0.08 dB -17.96 dB 3:32 15-I've Got You Under My Skin
DR12 -0.38 dB -15.15 dB 2:59 16-Let's Face The Music And Dance
DR12 0.00 dB -15.08 dB 3:11 17-Come Fly With Me
DR10 -1.36 dB -15.16 dB 3:09 18-My Kind Of Town
DR12 -0.28 dB -15.74 dB 5:15 19-Luck Be A Lady
DR13 -0.22 dB -18.82 dB 2:54 20-The Best Is Yet To Come
––––––––––––––––––––––––––––––––––––––––

Number of tracks: 20
Official DR value: DR12

Samplerate: 44100 Hz
Channels: 2
Bits per sample: 16
Bitrate: 825 kbps
Codec: FLAC
================================================================================

[CUETools log; Date: 11.08.2017 12:59:30; Version: 2.1.5]
[CTDB TOCID: pm1zaGakT9Wc5uX.y.Gsnf7P3Ps-] found.
Track | CTDB Status
1 | (128/129) Accurately ripped
2 | (129/129) Accurately ripped
3 | (129/129) Accurately ripped
4 | (129/129) Accurately ripped
5 | (129/129) Accurately ripped
6 | (129/129) Accurately ripped
7 | (129/129) Accurately ripped
8 | (129/129) Accurately ripped
9 | (129/129) Accurately ripped
10 | (129/129) Accurately ripped
11 | (129/129) Accurately ripped
12 | (128/129) Accurately ripped
13 | (128/129) Accurately ripped
14 | (129/129) Accurately ripped
15 | (129/129) Accurately ripped
16 | (129/129) Accurately ripped
17 | (127/129) Accurately ripped
18 | (129/129) Accurately ripped
19 | (129/129) Accurately ripped
20 | (127/129) Accurately ripped
[AccurateRip ID: 002a2459-02720db2-f30e7314] found.
Track [ CRC | V2 ] Status
01 [a4c4e0cf|d74e8cac] (092+072/185) Accurately ripped
02 [f43e893f|73d29013] (093+072/186) Accurately ripped
03 [ac958c87|29ea3ed0] (092+071/185) Accurately ripped
04 [279f2876|1ed40e3c] (091+071/184) Accurately ripped
05 [f13cbe19|059dd50a] (092+072/186) Accurately ripped
06 [3b223d4b|b03e5a0b] (093+073/187) Accurately ripped
07 [adb0a5cf|89ac06a2] (093+073/188) Accurately ripped
08 [238fb13d|cede65f0] (092+072/185) Accurately ripped
09 [8a8b2886|06ead9f9] (093+073/188) Accurately ripped
10 [073d6460|5b8ca186] (092+072/186) Accurately ripped
11 [5d0db528|87c48ca0] (092+070/183) Accurately ripped
12 [733c77a1|28cdd581] (090+069/179) Accurately ripped
13 [1e830f5a|70890b4b] (090+071/180) Accurately ripped
14 [46ddcf7f|efd83c7f] (090+071/183) Accurately ripped
15 [e5241cfb|ba4557ee] (091+073/185) Accurately ripped
16 [246ab9ac|a1de8c64] (087+071/179) Accurately ripped
17 [1cd3f967|650c8976] (089+072/181) Accurately ripped
18 [e8cbe528|39c3057c] (091+073/185) Accurately ripped
19 [73466b40|3b0190e9] (089+070/178) Accurately ripped
20 [4b36e325|0b7e4bc6] (088+068/175) Accurately ripped
Offsetted by -398:
01 [4e185807] (010/185) Accurately ripped
02 [da8a02f1] (010/186) Accurately ripped
03 [900711f9] (011/185) Accurately ripped
04 [77f4ba96] (011/184) Accurately ripped
05 [14c4a419] (011/186) Accurately ripped
06 [cbeebc6f] (011/187) Accurately ripped
07 [235ab5f9] (011/188) Accurately ripped
08 [55842f57] (010/185) Accurately ripped
09 [7c865580] (011/188) Accurately ripped
10 [60020596] (011/186) Accurately ripped
11 [ecccdeb8] (010/183) Accurately ripped
12 [18e1f3f5] (010/179) Accurately ripped
13 [c17d0e50] (009/180) Accurately ripped
14 [76897f7b] (011/183) Accurately ripped
15 [6e98a5f3] (011/185) Accurately ripped
16 [26c27688] (010/179) Accurately ripped
17 [bd4e3cd9] (010/181) Accurately ripped
18 [cec61f08] (010/185) Accurately ripped
19 [fd4a6b9e] (009/178) Accurately ripped
20 [63900daf] (009/175) Accurately ripped

Track Peak [ CRC32 ] [W/O NULL] [ LOG ]
– 99,9 [D16B594B] [807E1D10] CRC32
01 90,9 [C359F4B4] [6F471234]
02 77,2 [AD29C239] [20033738]
03 93,4 [A4E66D7B] [9A4AE23E]
04 86,8 [023125CC] [E15103D5]
05 88,2 [1E37D2E0] [5786B9A5]
06 97,7 [D69B9808] [8F28C086]
07 97,9 [625289FA] [337C70C7]
08 98,8 [42F94EC0] [A419B671]
09 98,8 [D77CCE89] [C8F7D843]
10 94,2 [689E8731] [75663713]
11 98,8 [24FA6096] [6E61F464]
12 98,8 [1AA9C7E2] [82830372]
13 90,3 [76F12184] [121101CE]
14 45,8 [24D202E9] [CEFECA4D]
15 99,0 [35B6871B] [F2CFE1F5]
16 95,7 [610D507B] [D09B213E]
17 99,9 [8AFD0773] [97E8A57F]
18 85,5 [86032978] [4F3A6016]
19 96,8 [FEE02316] [260C005C]
20 97,5 [9CEE1229] [3AC8759D]

Frank Sinatra - The Very Best Of Frank Sinatra (1997)

Frank Sinatra - The Very Best Of Frank Sinatra (1997)

Track List CD2:

01. It Was A Very Good Year [4:27]
02. All Or Nothing At All [3:44]
03. Night And Day [3:38]
04. Nancy [3:38]
05. Young At Heart [2:54]
06. Love And Marriage [2:13]
07. All The Way [3:29]
08. Witchcraft [2:38]
09. (Love Is) The Tender Trap [2:34]
10. The Second Time Around [3:01]
11. Pocketful Of Miracles [2:39]
12. Softly, As I Leave You [2:51]
13. Strangers In The Night [2:36]
14. Summer Wind [2:55]
15. That's Life [3:07]
16. Somethin' Stupid [2:39]
17. Wave [3:19]
18. My Way [4:37]
19. Theme From New York, New York [3:28]
20. Put Your Dreams Away [3:12]

Exact Audio Copy V1.0 beta 3 from 29. August 2011

EAC extraction logfile from 10. July 2017, 13:29

Frank Sinatra / The Very Best Of Frank Sinatra (Disc 2)

Used drive : PIONEER BD-RW BDR-TD03 Adapter: 0 ID: 1

Read mode : Secure
Utilize accurate stream : Yes
Defeat audio cache : Yes
Make use of C2 pointers : No

Read offset correction : 667
Overread into Lead-In and Lead-Out : No
Fill up missing offset samples with silence : Yes
Delete leading and trailing silent blocks : No
Null samples used in CRC calculations : Yes
Used interface : Native Win32 interface for Win NT & 2000

Used output format : User Defined Encoder
Selected bitrate : 768 kBit/s
Quality : High
Add ID3 tag : No
Command line compressor : C:\Program Files (x86)\Exact Audio Copy\FLAC\FLAC.EXE
Additional command line options : -6 -V -T "ARTIST=%artist%" -T "TITLE=%title%" -T "ALBUM=%albumtitle%" -T "DATE=%year%" -T "TRACKNUMBER=%tracknr%" -T "GENRE=%genre%" -T "COMMENT=%comment%" -T "BAND=%albuminterpret%" -T "ALBUMARTIST=%albuminterpret%" -T "COMPOSER=%composer%" %haslyrics%–tag-from-file=LYRICS="%lyricsfile%"%haslyrics% -T "DISCNUMBER=%cdnumber%" -T "TOTALDISCS=%totalcds%" -T "TOTALTRACKS=%numtracks%" %hascover%–picture="%coverfile%"%hascover% %source% -o %dest%


TOC of the extracted CD

Track | Start | Length | Start sector | End sector
––––––––––––––––––––––––––––-
1 | 0:00.00 | 4:26.60 | 0 | 20009
2 | 4:26.60 | 3:43.57 | 20010 | 36791
3 | 8:10.42 | 3:37.45 | 36792 | 53111
4 | 11:48.12 | 3:38.08 | 53112 | 69469
5 | 15:26.20 | 2:54.20 | 69470 | 82539
6 | 18:20.40 | 2:12.60 | 82540 | 92499
7 | 20:33.25 | 3:29.05 | 92500 | 108179
8 | 24:02.30 | 2:37.45 | 108180 | 119999
9 | 26:40.00 | 2:34.37 | 120000 | 131586
10 | 29:14.37 | 3:00.53 | 131587 | 145139
11 | 32:15.15 | 2:38.55 | 145140 | 157044
12 | 34:53.70 | 2:51.35 | 157045 | 169904
13 | 37:45.30 | 2:36.10 | 169905 | 181614
14 | 40:21.40 | 2:55.17 | 181615 | 194756
15 | 43:16.57 | 3:07.28 | 194757 | 208809
16 | 46:24.10 | 2:39.30 | 208810 | 220764
17 | 49:03.40 | 3:19.15 | 220765 | 235704
18 | 52:22.55 | 4:37.10 | 235705 | 256489
19 | 56:59.65 | 3:27.60 | 256490 | 272074
20 | 60:27.50 | 3:12.35 | 272075 | 286509


Range status and errors

Selected range

Filename C:\Users\Deris\Desktop\SinatBes\CD2\Frank Sinatra - The Very Best Of Frank Sinatra (Disc 2).wav

Peak level 99.9 %
Extraction speed 5.0 X
Range quality 100.0 %
Test CRC CCE8FEC1
Copy CRC CCE8FEC1
Copy OK

No errors occurred


AccurateRip summary

Track 1 accurately ripped (confidence 67) [645EDD02] (AR v2)
Track 2 accurately ripped (confidence 68) [139426A8] (AR v2)
Track 3 accurately ripped (confidence 67) [1D0DE368] (AR v2)
Track 4 accurately ripped (confidence 67) [62306538] (AR v2)
Track 5 accurately ripped (confidence 68) [995B24C4] (AR v2)
Track 6 accurately ripped (confidence 68) [7B6388BF] (AR v2)
Track 7 accurately ripped (confidence 69) [C03A9222] (AR v2)
Track 8 accurately ripped (confidence 67) [5685F412] (AR v2)
Track 9 accurately ripped (confidence 67) [597842C6] (AR v2)
Track 10 accurately ripped (confidence 67) [A4A9F9AB] (AR v2)
Track 11 accurately ripped (confidence 68) [52D4AB42] (AR v2)
Track 12 accurately ripped (confidence 68) [98E4DF42] (AR v2)
Track 13 accurately ripped (confidence 67) [5627BFA0] (AR v2)
Track 14 accurately ripped (confidence 68) [6E7A9733] (AR v2)
Track 15 accurately ripped (confidence 68) [E137EF3F] (AR v2)
Track 16 accurately ripped (confidence 69) [1C01B94A] (AR v2)
Track 17 accurately ripped (confidence 68) [48D978BB] (AR v2)
Track 18 accurately ripped (confidence 70) [79F17A36] (AR v2)
Track 19 accurately ripped (confidence 66) [DBA8DB22] (AR v2)
Track 20 accurately ripped (confidence 65) [D8F3A4D1] (AR v2)

All tracks accurately ripped

End of status report

–– CUETools DB Plugin V2.1.3

[CTDB TOCID: tWPZIiSgb2vzCV9fulkLIV9I40Y-] found, Submit result: tWPZIiSgb2vzCV9fulkLIV9I40Y- has been confirmed
[3868f4dd] (114/141) Accurately ripped
[4e3416e5] (001/141) No match
[18be5cbd] (017/141) No match
[0a89c343] (001/141) No match
[01c1e2b0] (001/141) No match
[4efa3d58] (001/141) No match
[b9f8f589] (001/141) No match
[b07fb5f7] (001/141) No match
[30b7ea31] (001/141) No match
[eae74891] (001/141) No match
[08d287aa] (001/141) No match
[61555771] (001/141) No match


==== Log checksum 9FE60104DF6AF8163572CE82AED19DF3C25F7400A928A76844029A4B87E8EAFB ====

foobar2000 1.2.6 / Dynamic Range Meter 1.1.1
log date: 2017-08-11 12:58:37

––––––––––––––––––––––––––––––––––––––––
Analyzed: Frank Sinatra / The Very Best Of Frank Sinatra (Disc 2)
––––––––––––––––––––––––––––––––––––––––

DR Peak RMS Duration Track
––––––––––––––––––––––––––––––––––––––––
DR11 -4.02 dB -19.87 dB 4:27 01-It Was A Very Good Year
DR12 -0.31 dB -16.79 dB 3:44 02-All Or Nothing At All
DR12 0.00 dB -16.89 dB 3:38 03-Night And Day
DR13 -0.49 dB -20.46 dB 3:38 04-Nancy
DR11 -5.82 dB -20.51 dB 2:54 05-Young At Heart
DR12 -1.60 dB -16.94 dB 2:13 06-Love And Marriage
DR11 -2.99 dB -19.06 dB 3:29 07-All The Way
DR12 -1.31 dB -17.45 dB 2:38 08-Witchcraft
DR13 -0.52 dB -19.76 dB 2:34 09-(Love Is) The Tender Trap
DR10 -5.12 dB -18.54 dB 3:01 10-The Second Time Around
DR11 0.00 dB -15.07 dB 2:39 11-Pocketful Of Miracles
DR11 -0.18 dB -16.69 dB 2:51 12-Softly, As I Leave You
DR11 -0.18 dB -14.53 dB 2:36 13-Strangers In The Night
DR12 -0.55 dB -17.82 dB 2:55 14-Summer Wind
DR12 -1.49 dB -16.50 dB 3:07 15-That's Life
DR12 -2.42 dB -16.96 dB 2:39 16-Somethin' Stupid
DR11 -1.04 dB -16.56 dB 3:19 17-Wave
DR12 -0.43 dB -17.08 dB 4:37 18-My Way
DR12 -0.66 dB -15.64 dB 3:28 19-Theme From New York, New York
DR11 -2.36 dB -18.04 dB 3:12 20-Put Your Dreams Away
––––––––––––––––––––––––––––––––––––––––

Number of tracks: 20
Official DR value: DR12

Samplerate: 44100 Hz
Channels: 2
Bits per sample: 16
Bitrate: 799 kbps
Codec: FLAC
================================================================================

[CUETools log; Date: 11.08.2017 12:58:40; Version: 2.1.5]
[CTDB TOCID: tWPZIiSgb2vzCV9fulkLIV9I40Y-] found.
Track | CTDB Status
1 | (141/144) Accurately ripped
2 | (143/144) Accurately ripped
3 | (125/144) Accurately ripped
4 | (143/144) Accurately ripped
5 | (125/144) Accurately ripped
6 | (125/144) Accurately ripped
7 | (124/144) Accurately ripped
8 | (124/144) Accurately ripped
9 | (125/144) Accurately ripped
10 | (124/144) Accurately ripped
11 | (124/144) Accurately ripped
12 | (142/144) Accurately ripped
13 | (125/144) Accurately ripped
14 | (124/144) Accurately ripped
15 | (141/144) Accurately ripped
16 | (143/144) Accurately ripped
17 | (142/144) Accurately ripped
18 | (123/144) Accurately ripped
19 | (142/144) Accurately ripped
20 | (121/144) Accurately ripped
[AccurateRip ID: 002e6ec0-029e69e6-220eec14] found.
Track [ CRC | V2 ] Status
01 [ac233699|645edd02] (096+070/199) Accurately ripped
02 [c2dde152|139426a8] (096+071/198) Accurately ripped
03 [da0c872d|1d0de368] (096+070/199) Accurately ripped
04 [3bf41e02|62306538] (096+070/199) Accurately ripped
05 [7e2ce2f7|995b24c4] (096+071/200) Accurately ripped
06 [43e314f7|7b6388bf] (093+071/197) Accurately ripped
07 [6ac645c8|c03a9222] (095+072/200) Accurately ripped
08 [a3e52cef|5685f412] (096+070/199) Accurately ripped
09 [d00e9ef6|597842c6] (095+070/198) Accurately ripped
10 [83a9eda8|a4a9f9ab] (093+070/195) Accurately ripped
11 [69d2b72a|52d4ab42] (095+071/198) Accurately ripped
12 [eaad1a7e|98e4df42] (095+070/197) Accurately ripped
13 [d8266fe7|5627bfa0] (095+070/198) Accurately ripped
14 [c081df1a|6e7a9733] (096+071/200) Accurately ripped
15 [b80bfa9f|e137ef3f] (094+070/196) Accurately ripped
16 [07a988ed|1c01b94a] (094+071/198) Accurately ripped
17 [d5c67b3f|48d978bb] (092+070/193) Accurately ripped
18 [7e11cb61|79f17a36] (091+073/196) Accurately ripped
19 [9ee093e5|dba8db22] (094+069/195) Accurately ripped
20 [d217d4f9|d8f3a4d1] (088+068/187) Accurately ripped
Offsetted by -394:
01 [e5332c07] (009/199) Accurately ripped
02 [14529250] (008/198) Accurately ripped
03 [a71ba089] (009/199) Accurately ripped
04 [f83cfef0] (009/199) Accurately ripped
05 [9ca0f0e7] (009/200) Accurately ripped
06 [bf628deb] (009/197) Accurately ripped
07 [cfda7348] (009/200) Accurately ripped
08 [fdbd11ed] (009/199) Accurately ripped
09 [7d89a4a2] (009/198) Accurately ripped
10 [7091ba5c] (008/195) Accurately ripped
11 [acf3b7ac] (008/198) Accurately ripped
12 [7131f7d2] (008/197) Accurately ripped
13 [2561311f] (009/198) Accurately ripped
14 [6eb25330] (009/200) Accurately ripped
15 [2d1bf8ab] (008/196) Accurately ripped
16 [05ff2479] (009/198) Accurately ripped
17 [9a55f07f] (008/193) Accurately ripped
18 [91047343] (009/196) Accurately ripped
19 [697a18b1] (009/195) Accurately ripped
20 [bc55a519] (007/187) Accurately ripped
Offsetted by 1749:
01 [509ea532] (008/199) Accurately ripped
02 [9700cfa3] (008/198) Accurately ripped
03 [8833691f] (000/199) No match
04 [f58aeadb] (008/199) Accurately ripped
05 [1feca27f] (000/200) No match
06 [a584495d] (000/197) No match (V2 was not tested)
07 [6ef33308] (000/200) No match
08 [a9dd6140] (000/199) No match
09 [f10c5a40] (000/198) No match
10 [c82eb22e] (000/195) No match (V2 was not tested)
11 [baa25419] (000/198) No match
12 [105635b4] (008/197) Accurately ripped
13 [477e888b] (000/198) No match (V2 was not tested)
14 [4f68821f] (000/200) No match (V2 was not tested)
15 [8629b2b9] (008/196) Accurately ripped
16 [82b5f647] (008/198) Accurately ripped
17 [622e5e9f] (007/193) Accurately ripped
18 [2182f5a0] (000/196) No match
19 [d2bf8a9f] (008/195) Accurately ripped
20 [63697fe9] (000/187) No match

Track Peak [ CRC32 ] [W/O NULL] [ LOG ]
– 99,9 [CCE8FEC1] [5BEBAAF7] CRC32
01 62,9 [EA2B1167] [16BE31A8]
02 96,4 [11991BD6] [3EDB09B7]
03 99,9 [69622D90] [4E9BB73B]
04 94,4 [A1864F17] [8241D56D]
05 51,1 [5589E3F3] [6CA7ACE3]
06 83,1 [E839E8C4] [832EA253]
07 70,9 [B2E7B0B0] [9E253F84]
08 86,0 [6E145476] [C6D6EE17]
09 94,2 [890F5B97] [4BA64D14]
10 55,4 [818FBC90] [B2311823]
11 99,9 [6ABD076F] [E6EF6109]
12 97,9 [AC9A55F1] [5C79580A]
13 97,9 [CC8F9E8E] [7146E290]
14 93,8 [CE16BA7B] [7FB657CA]
15 84,1 [63200B42] [E51D683D]
16 75,7 [F6E0A0AD] [CDD6459F]
17 88,7 [E7B44E3D] [3CF8FDEB]
18 95,1 [A2E63F50] [18B4D3FC]
19 92,6 [8B528C6A] [DFCE064C]
20 76,2 [BF84C690] [BE635FA3]

Frank Sinatra - The Very Best Of Frank Sinatra (1997)

All thanks go to Boris1

>>> Frank Sinatra in my Blog <<<

Download from icerbox.com: