Subcategories

Frank Marino & Mahogany Rush - Live (1978) REPOST

Posted By: uff
Frank Marino & Mahogany Rush - Live (1978) REPOST

Frank Marino & Mahogany Rush - Live (1978)
rock | 1cd | Eac Rip | Flac + Cue + Log | covers
Columbia CK 35257 | rel: 1989 | 340mb

Mahogany Rush wasn't as huge a name in 1970s hard rock/heavy metal as Led Zeppelin, Black Sabbath, or Deep Purple, but the power trio commanded a loyal, good-sized following and provided its share of five-star albums. One of them is this live album, which was recorded during a U.S. tour in late 1977 and came out on vinyl the following year. Mahogany knew how to burn on stage, and this excellent LP really captures the vitality of its 1970s concerts. No one who is seriously into hard rock and metal should be deprived of hearing singer/guitarist Frank Marino let loose on live versions of "Dragonfly," "Electric Reflections of War," and "The Answer." The band is equally captivating on sweaty performances of Jimi Hendrix's "Purple Haze," Chuck Berry's "Johnny B. Goode," and Muddy Waters' "I'm a King Bee." Some fans were disappointed because Live is a single LP instead of a two-LP set – many of the gems that Mahogany performed on-stage in 1977 were omitted. The band cites space limitations as the reason, although one suspects that licensing restrictions had something to do with what was and wasn't included. But while Live may not be the perfect document of Mahogany Rush on-stage in the '70s, it is consistently rewarding and is enthusiastically recommended to hard rockers and metalheads.

Tracks:
Tracks
1. Introduction (Drake, Kath) - 0:28
2. The Answer (Marino) - 5:01
3. Dragonfly (Harry, Marino, Stein) - 5:27
4. I'm a King Bee (Moore) - 5:58
5. Excerpt from "Back Door Man" (Berry, Burnett, Dixon) - 2:56
6. A New Rock & Roll (Marino) - 4:19
7. Johnny B. Goode (Berry) - 5:16
8. Talkin' 'Bout a Feelin' (Marino) - 3:58
9. Excerpt from "Who Do Ya Love" (McDaniel) - 1:32
10.Electric Reflections of War (Marino) - 3:04
11.The World Anthem (Marino) - 3:38
12.Purple Haze (Hendrix) - 4:01

Personnel:
*Jimmy Ayoub - Drums, Percussion
*Paul Harwood - Bass
*Frank Marino - Guitar, Vocals

Exact Audio Copy V0.99 prebeta 5 from 4. May 2009

EAC extraction logfile from 13. April 2011, 15:16

Frank Marino & Mahogany Rush / Live

Used drive : _NEC DVD_RW ND-3550A Adapter: 1 ID: 0

Read mode : Secure
Utilize accurate stream : Yes
Defeat audio cache : Yes
Make use of C2 pointers : No

Read offset correction : 48
Overread into Lead-In and Lead-Out : No
Fill up missing offset samples with silence : Yes
Delete leading and trailing silent blocks : No
Null samples used in CRC calculations : Yes
Used interface : Native Win32 interface for Win NT & 2000

Used output format : User Defined Encoder
Selected bitrate : 1024 kBit/s
Quality : High
Add ID3 tag : No
Command line compressor : C:\Program Files\Exact Audio Copy\Flac\flac.exe
Additional command line options : -8 -V %s


TOC of the extracted CD

Track | Start | Length | Start sector | End sector
––––––––––––––––––––––––––––-
1 | 0:00.00 | 0:27.14 | 0 | 2038
2 | 0:27.14 | 5:01.10 | 2039 | 24623
3 | 5:28.24 | 5:27.00 | 24624 | 49148
4 | 10:55.24 | 5:58.00 | 49149 | 75998
5 | 16:53.24 | 2:56.00 | 75999 | 89198
6 | 19:49.24 | 4:19.47 | 89199 | 108670
7 | 24:08.71 | 5:17.23 | 108671 | 132468
8 | 29:26.19 | 3:57.52 | 132469 | 150295
9 | 33:23.71 | 1:32.68 | 150296 | 157263
10 | 34:56.64 | 3:04.50 | 157264 | 171113
11 | 38:01.39 | 3:38.60 | 171114 | 187523
12 | 41:40.24 | 4:02.09 | 187524 | 205682


Range status and errors

Selected range

Filename C:\Atsiuntimas\Frank Marino & Mahogany Rush - Live (1978)\Frank Marino & Mahogany Rush - Live.wav

Peak level 100.0 %
Range quality 100.0 %
Test CRC 43D1DD3D
Copy CRC 43D1DD3D
Copy OK

No errors occurred


AccurateRip summary

Track 1 accurately ripped (confidence 4) [7948EE96]
Track 2 accurately ripped (confidence 4) [1F221665]
Track 3 accurately ripped (confidence 4) [017A6107]
Track 4 accurately ripped (confidence 4) [D6284FE5]
Track 5 accurately ripped (confidence 4) [3536F05A]
Track 6 accurately ripped (confidence 4) [11EE97EF]
Track 7 accurately ripped (confidence 4) [421ACC06]
Track 8 accurately ripped (confidence 4) [21A54470]
Track 9 accurately ripped (confidence 4) [F033FBE2]
Track 10 accurately ripped (confidence 4) [AC44673B]
Track 11 accurately ripped (confidence 4) [754FEB05]
Track 12 accurately ripped (confidence 4) [619B4AA7]

All tracks accurately ripped

End of status report



[CUETools log; Date: 2013.04.09. 15:43:13; Version: 2.1.4]
[CTDB TOCID: dGk9HOhxCeVCd0WWOOo5w1jkUpM-] found.
Track | CTDB Status
1 | (1/1) Differs in 140 samples @00:01:50,00:02:60-00:02:67,00:03:18-00:03:23,00:03:49-00:03:50,00:03:56-00:03:60,00:04:04-00:04:06,00:04:27,00:04:37,00:04:68-00:04:72,00:05:16
2 | (1/1) Differs in 7 samples @00:09:03,04:13:12
3 | (1/1) Accurately ripped
4 | (1/1) Accurately ripped
5 | (1/1) Accurately ripped
6 | (1/1) Accurately ripped
7 | (1/1) Accurately ripped
8 | (1/1) Accurately ripped
9 | (1/1) Accurately ripped
10 | (1/1) Accurately ripped
11 | (1/1) Accurately ripped
12 | (1/1) Accurately ripped
[AccurateRip ID: 0014a92f-00c26d16-8a0ab60c] found.
Track [ CRC | V2 ] Status
01 [162d29bf|7cd8e3b4] (0+0/6) No match
02 [1eef4dc9|83dfb619] (0+0/6) No match
03 [e37319d8|aa05f7ba] (0+0/6) No match
04 [030cf34b|cb6e948c] (0+0/6) No match
05 [9b9105c3|8c516e09] (0+0/6) No match
06 [20d01aab|0c93a8d1] (0+0/6) No match
07 [2fba252b|660ec10c] (0+0/6) No match
08 [c1dcbcef|5ace599b] (0+0/6) No match
09 [7a6e05e4|04cc0991] (0+0/6) No match
10 [d704a1a6|8bb41d56] (0+0/6) No match
11 [b97741c2|16bddbbb] (0+0/6) No match
12 [443f364b|201ac0c9] (0+0/6) No match
Offsetted by 685:
01 [ba476c4f] (0/6) No match (V2 was not tested)
02 [42b58697] (0/6) No match (V2 was not tested)
03 [e6cf2a4d] (6/6) Accurately ripped
04 [ff9d894a] (6/6) Accurately ripped
05 [148ed391] (6/6) Accurately ripped
06 [8679d771] (6/6) Accurately ripped
07 [473cc3d9] (6/6) Accurately ripped
08 [d60a8007] (6/6) Accurately ripped
09 [4afbb377] (6/6) Accurately ripped
10 [3eb8b907] (6/6) Accurately ripped
11 [6a2e4508] (6/6) Accurately ripped
12 [11a98406] (6/6) Accurately ripped

Track Peak [ CRC32 ] [W/O NULL] [ LOG ]
– 100,0 [43D1DD3D] [6E2EA66A] CRC32
01 99,3 [895D6ADC] [00EAD5A4]
02 99,3 [0978DAD7] [29729BEC]
03 99,3 [6AA6DE91] [DDA797B3]
04 100,0 [9417B8E3] [448BE19E]
05 100,0 [1E0FA189] [407B6143]
06 100,0 [303555C2] [F1C43A3E]
07 100,0 [006E84BF] [B9907C2B]
08 99,3 [C589046E] [593E84CD]
09 99,3 [FBA83215] [C889ABE2]
10 99,3 [B6676683] [1BC884DF]
11 99,7 [C67FEE17] [E0724DD1]
12 100,0 [73485DEF] [17719C91]


Thx to the original uploader