Tags
Language
Tags

Frans Brüggen, Orchestra of the 18th Century - Felix Mendelssohn: Symphonies Nos. 3, 4 & 5 (1997)

Posted By: ArlegZ
Frans Brüggen, Orchestra of the 18th Century - Felix Mendelssohn: Symphonies Nos. 3, 4 & 5 (1997)

Frans Brüggen, Orchestra of the 18th Century - Felix Mendelssohn: Symphonies Nos. 3, 4 & 5 (1997)
EAC | FLAC | Image (Cue & Log) ~ 563 Mb | Total time: 01:59:51 | Scans included
Classical | Label: Philips | # 4562672 | Recorded: 1990, 1994, 1995, 1996

The best period instrument recording of Mendelssohn Symphonies 3,4,5 and Overtures " the Hebrides" and "Calm sea and Prosperous Voyage". Bruggen's tempos are moderate and textures are very clear: you can hear individual voices in the orchestra not obvious in many recordings. The Orchestra of the 18th Century play with a full sound and are never scrawny. Orchestra of the 18th Century's horns, clarinet, and flutes were very well played in these live recordings from 1990, 1994, 1995, and 1996.

Performer:
Orchestra of the 18th Century
Frans Brüggen, conductor

Track List:
CD1:
Symphony No. 4 in A major, Op. 90, "Italian"
01. 1. Allegro vivace
02. 2. Andante con moto
03. 3. Con moto moderato
04. 4. Saltarello. Presto
Symphony No.5 in D minor, Op.107, "Reformation"
05. 1. Andante - Allegro con fuoco
06. 2. Allegro vivace
07. 3. Andante
08. 4. Choral "Ein' Feste Burg ist unser Gott!" - Andante con moto - Allegro vivace - Allegro maestoso - Più animato poco a poco
CD2:
01. Overture "The Hebrides" (Fingal's Cave), Op.26
Symphony No. 3 in A minor, Op. 56 "Scottish"
02. 1. Andante con moto - Allegro un poco agitato - Assai animato - Andante con prima
03. 2. Vivace non troppo
04. 3. Adagio
05. 4. Allegro vivacissimo - Allegro maestoso assai
06. "Meeresstille und glückliche Fahrt", Op.27


Exact Audio Copy V1.6 from 23. October 2020

EAC extraction logfile from 27. June 2021, 15:40

Orchestra of the 18th Century - Frans Bruggen / Mendelssohn, Symphonies Nos. 3, 4, 5 CD 1

Used drive : ASUS DRW-24B1ST j Adapter: 1 ID: 0

Read mode : Secure
Utilize accurate stream : Yes
Defeat audio cache : Yes
Make use of C2 pointers : No

Read offset correction : 6
Overread into Lead-In and Lead-Out : No
Fill up missing offset samples with silence : Yes
Delete leading and trailing silent blocks : No
Null samples used in CRC calculations : Yes
Used interface : Native Win32 interface for Win NT & 2000

Used output format : User Defined Encoder
Selected bitrate : 896 kBit/s
Quality : High
Add ID3 tag : Yes
Command line compressor : C:\Program Files (x86)\Exact Audio Copy\FLAC\FLAC.EXE
Additional command line options : -6 -V -T "ARTIST=%artist%" -T "TITLE=%title%" -T "ALBUM=%albumtitle%" -T "DATE=%year%" -T "TRACKNUMBER=%tracknr%" -T "GENRE=%genre%" -T "COMMENT=%comment%" -T "BAND=%albuminterpret%" -T "ALBUMARTIST=%albuminterpret%" -T "COMPOSER=%composer%" %haslyrics%–tag-from-file=LYRICS="%lyricsfile%"%haslyrics% -T "DISCNUMBER=%cdnumber%" -T "TOTALDISCS=%totalcds%" -T "TOTALTRACKS=%numtracks%" %hascover%–picture="%coverfile%"%hascover% %source% -o %dest%


TOC of the extracted CD

Track | Start | Length | Start sector | End sector
––––––––––––––––––––––––––––-
1 | 0:00.32 | 11:13.00 | 32 | 50506
2 | 11:13.32 | 6:22.00 | 50507 | 79156
3 | 17:35.32 | 5:43.00 | 79157 | 104881
4 | 23:18.32 | 5:23.00 | 104882 | 129106
5 | 28:41.32 | 11:38.00 | 129107 | 181456
6 | 40:19.32 | 5:13.00 | 181457 | 204931
7 | 45:32.32 | 4:18.00 | 204932 | 224281
8 | 49:50.32 | 7:45.00 | 224282 | 259156


Range status and errors

Selected range

Filename K:\Tubarec rips\Mendelssohn - Symphonies Nos. 3, 4, 5- Overtures - Bruggen\CD1\Orchestra of the 18th Century - Frans Bruggen - Mendelssohn, Symphonies Nos. 3, 4, 5 CD 1.wav

Peak level 99.9 %
Extraction speed 4.7 X
Range quality 99.9 %
Test CRC 16D7AA84
Copy CRC 16D7AA84
Copy OK

No errors occurred


AccurateRip summary

Track 1 accurately ripped (confidence 12) [71A98EF4] (AR v2)
Track 2 accurately ripped (confidence 12) [EB55A025] (AR v2)
Track 3 accurately ripped (confidence 12) [333A63B7] (AR v2)
Track 4 accurately ripped (confidence 12) [769C4838] (AR v2)
Track 5 accurately ripped (confidence 12) [B42101CE] (AR v2)
Track 6 accurately ripped (confidence 12) [30374B41] (AR v2)
Track 7 accurately ripped (confidence 12) [A632D3B5] (AR v2)
Track 8 accurately ripped (confidence 12) [7F363B4C] (AR v2)

All tracks accurately ripped

End of status report

–– CUETools DB Plugin V2.1.6

[CTDB TOCID: KWAurVJ_84xJWHh41fETGK2D1TA-] found
Submit result: KWAurVJ_84xJWHh41fETGK2D1TA- has been confirmed
Track | CTDB Status
1 | (25/29) Accurately ripped
2 | (25/29) Accurately ripped
3 | (25/29) Accurately ripped
4 | (25/29) Accurately ripped
5 | (25/29) Accurately ripped
6 | (25/29) Accurately ripped
7 | (26/29) Accurately ripped
8 | (24/29) Accurately ripped


==== Log checksum 49CAA082C71EC66E57CD4517D8681214C702D343DAEE8ED362EA6F7B01455C7A ====


Exact Audio Copy V1.6 from 23. October 2020

EAC extraction logfile from 15. July 2021, 20:07

Orchestra of the 18th Century - Frans Bruggen / Mendelssohn, Symphonies Nos. 3, 4, 5 CD 2

Used drive : ATAPI iHAS122 F Adapter: 1 ID: 0

Read mode : Secure
Utilize accurate stream : Yes
Defeat audio cache : Yes
Make use of C2 pointers : No

Read offset correction : 6
Overread into Lead-In and Lead-Out : No
Fill up missing offset samples with silence : Yes
Delete leading and trailing silent blocks : No
Null samples used in CRC calculations : Yes
Used interface : Native Win32 interface for Win NT & 2000

Used output format : User Defined Encoder
Selected bitrate : 768 kBit/s
Quality : High
Add ID3 tag : No
Command line compressor : C:\Program Files (x86)\Exact Audio Copy\FLAC\FLAC.EXE
Additional command line options : -6 -V -T "ARTIST=%artist%" -T "TITLE=%title%" -T "ALBUM=%albumtitle%" -T "DATE=%year%" -T "TRACKNUMBER=%tracknr%" -T "GENRE=%genre%" -T "COMMENT=%comment%" -T "BAND=%albuminterpret%" -T "ALBUMARTIST=%albuminterpret%" -T "COMPOSER=%composer%" %haslyrics%–tag-from-file=LYRICS="%lyricsfile%"%haslyrics% -T "DISCNUMBER=%cdnumber%" -T "TOTALDISCS=%totalcds%" -T "TOTALTRACKS=%numtracks%" %hascover%–picture="%coverfile%"%hascover% %source% -o %dest%


TOC of the extracted CD

Track | Start | Length | Start sector | End sector
––––––––––––––––––––––––––––-
1 | 0:00.32 | 9:57.00 | 32 | 44806
2 | 9:57.32 | 16:31.38 | 44807 | 119169
3 | 26:28.70 | 4:20.37 | 119170 | 138706
4 | 30:49.32 | 9:21.00 | 138707 | 180781
5 | 40:10.32 | 9:56.00 | 180782 | 225481
6 | 50:06.32 | 12:28.00 | 225482 | 281581


Range status and errors

Selected range

Filename K:\Tubarec rips\Mendelssohn - Symphonies Nos. 3, 4, 5 - Overtures - Bruggen X\CD2\Orchestra of the 18th Century - Frans Bruggen - Mendelssohn, Symphonies Nos. 3, 4, 5 CD 2.wav

Peak level 99.6 %
Extraction speed 8.7 X
Range quality 100.0 %
Test CRC F22A524B
Copy CRC F22A524B
Copy OK

No errors occurred


AccurateRip summary

Track 1 accurately ripped (confidence 12) [AD6D2CC7] (AR v2)
Track 2 accurately ripped (confidence 12) [63DE5D20] (AR v2)
Track 3 accurately ripped (confidence 12) [62A325C0] (AR v2)
Track 4 accurately ripped (confidence 12) [B0BC0F4A] (AR v2)
Track 5 accurately ripped (confidence 12) [9B70A3C7] (AR v2)
Track 6 accurately ripped (confidence 11) [8D0B7429] (AR v2)

All tracks accurately ripped

End of status report

–– CUETools DB Plugin V2.1.6

[CTDB TOCID: r.uYi8D0TwoGyEPi1kU6UmlToyM-] found
Submit result: r.uYi8D0TwoGyEPi1kU6UmlToyM- has been confirmed
Track | CTDB Status
1 | (12/12) Accurately ripped
2 | (12/12) Accurately ripped
3 | (12/12) Accurately ripped
4 | (12/12) Accurately ripped
5 | (12/12) Accurately ripped
6 | (12/12) Accurately ripped


==== Log checksum CF1C541B2E2D4EB33C705B9C86E61DD3CE803C9341F83AE2A74918E56373D1D8 ====

Frans Brüggen, Orchestra of the 18th Century - Felix Mendelssohn: Symphonies Nos. 3, 4 & 5 (1997)

Thanks to the original releaser