Subcategories

Freddie Mercury - Original Version. Single Version. Rarities (2018)

Posted By: popsakov
Freddie Mercury - Original Version. Single Version. Rarities (2018)

Freddie Mercury - Original Version. Single Version. Rarities (2018)
EAC Rip | FLAC (Img) + Cue + Log ~ 1,10 Gb | MP3 CBR320 ~ 418 Mb
Scans Included (JPG, 300 dpi) | RAR 5% Recovery
Rock | Virgin / EMI Records #06025470498224 | Unofficial Release

Freddie Mercury was a British singer, songwriter and record producer, best known as the lead vocalist of the rock band Queen. He was known for his flamboyant stage persona and four-octave vocal range. Mercury wrote numerous hits for Queen, including "Bohemian Rhapsody", "Killer Queen", "Somebody to Love", "Don't Stop Me Now", "Crazy Little Thing Called Love", and "We Are the Champions". He led a solo career while performing with Queen, and occasionally served as a producer and guest musician for other artists. He formed Queen in 1970 with guitarist Brian May and drummer Roger Taylor. Mercury died in 1991 at age 45 due to complications from AIDS, having confirmed the day before his death that he had contracted the disease.

In 1992, Mercury was posthumously awarded the Brit Award for Outstanding Contribution to British Music, and a tribute concert was held at Wembley Stadium, London. As a member of Queen, he was inducted into the Rock and Roll Hall of Fame in 2001, the Songwriters Hall of Fame in 2003, and the UK Music Hall of Fame in 2004. In 2002, he was placed number 58 in the BBC's 2002 poll of the 100 Greatest Britons. He is consistently voted one of the greatest singers in the history of popular music.
~ Wiki
***************

Freddie Mercury - Original Version. Single Version. Rarities (2018)

Track List CD1:

01. Living On My Own (Original Extended Version 1985) [6:40]
02. Foolin' Around (Unreleased 12' Mix) [5:38]
03. How Can I Go On (Single Version 1989) [4:03]
04. My Love Is Dangerous (Original Single Version 1985) [3:41]
05. Love Kills (Original Extended Version 1984) [5:23]
06. I Was Born To Love You (Original Extended Version 1985) [7:06]
07. Made In Heaven (Alternative Version) [4:28]
08. Lady With A Tenor Sax (Billy Squiler: Work In Progress 1986) [4:03]
09. In My Defence (2000 Remix) [3:55]
10. She Blows Hot & Cold (Alternative Version feat. Brian May) [4:37]
11. The Great Pretender (Brian Malouf Remix) [3:40]
12. Hold On (Freddie Mercury ana Jo Dare 1986) [3:39]
13. Love Makin' Love (Demo) [3:36]
14. Man Made Paradise (Original Version 1986) [4:09]
15. Love Me Like There's No Tomorrow (Original Extended Version 1985) [5:33]
16. Mr. Bad Guy (Early Version) [3:30]
17. Love Is The Hero (12' Version Billy Squiler 1986) [5:23]

Exact Audio Copy V1.1 from 23. June 2015

EAC extraction logfile from 17. February 2018, 10:53

Freddie Mercury / Freddie Mercury (Original Version. Single Version. Rarities) CD1

Used drive : TSSTcorpDVDWBD SH-B123L Adapter: 0 ID: 4

Read mode : Secure
Utilize accurate stream : Yes
Defeat audio cache : Yes
Make use of C2 pointers : No

Read offset correction : 6
Overread into Lead-In and Lead-Out : No
Fill up missing offset samples with silence : Yes
Delete leading and trailing silent blocks : No
Null samples used in CRC calculations : Yes
Used interface : Installed external ASPI interface

Used output format : User Defined Encoder
Selected bitrate : 768 kBit/s
Quality : High
Add ID3 tag : No
Command line compressor : C:\Program Files (x86)\Exact Audio Copy\FLAC\FLAC.EXE
Additional command line options : -6 -V -T "ARTIST=%artist%" -T "TITLE=%title%" -T "ALBUM=%albumtitle%" -T "DATE=%year%" -T "TRACKNUMBER=%tracknr%" -T "GENRE=%genre%" -T "COMMENT=%comment%" -T "BAND=%albuminterpret%" -T "ALBUMARTIST=%albuminterpret%" -T "COMPOSER=%composer%" %haslyrics%–tag-from-file=LYRICS="%lyricsfile%"%haslyrics% -T "DISCNUMBER=%cdnumber%" -T "TOTALDISCS=%totalcds%" -T "TOTALTRACKS=%numtracks%" %hascover%–picture="%coverfile%"%hascover% %source% -o %dest%


TOC of the extracted CD

Track | Start | Length | Start sector | End sector
––––––––––––––––––––––––––––-
1 | 0:00.00 | 6:39.68 | 0 | 29992
2 | 6:39.68 | 5:38.10 | 29993 | 55352
3 | 12:18.03 | 4:02.68 | 55353 | 73570
4 | 16:20.71 | 3:40.48 | 73571 | 90118
5 | 20:01.44 | 5:22.57 | 90119 | 114325
6 | 25:24.26 | 7:06.30 | 114326 | 146305
7 | 32:30.56 | 4:28.30 | 146306 | 166435
8 | 36:59.11 | 4:02.63 | 166436 | 184648
9 | 41:01.74 | 3:55.23 | 184649 | 202296
10 | 44:57.22 | 4:36.55 | 202297 | 223051
11 | 49:34.02 | 3:39.68 | 223052 | 239544
12 | 53:13.70 | 3:39.30 | 239545 | 255999
13 | 56:53.25 | 3:36.35 | 256000 | 272234
14 | 60:29.60 | 4:09.37 | 272235 | 290946
15 | 64:39.22 | 5:32.58 | 290947 | 315904
16 | 70:12.05 | 3:29.40 | 315905 | 331619
17 | 73:41.45 | 5:22.55 | 331620 | 355824


Range status and errors

Selected range

Filename E:\MUSIC\Freddie Mercury - Freddie Mercury (Original Version. Single Version. Rarities) CD1.wav

Peak level 100.0 %
Extraction speed 4.0 X
Range quality 100.0 %
Test CRC 50A4B401
Copy CRC 50A4B401
Copy OK

No errors occurred


AccurateRip summary

Track 1 not present in database
Track 2 not present in database
Track 3 not present in database
Track 4 not present in database
Track 5 not present in database
Track 6 not present in database
Track 7 not present in database
Track 8 not present in database
Track 9 not present in database
Track 10 not present in database
Track 11 not present in database
Track 12 not present in database
Track 13 not present in database
Track 14 not present in database
Track 15 not present in database
Track 16 not present in database
Track 17 not present in database

None of the tracks are present in the AccurateRip database

End of status report

==== Log checksum 390A14CAFD1DEDB8B7957C52CD5F2496BF583EB1AC041688C4247024F658012F ====

foobar2000 1.3.16 / Dynamic Range Meter 1.1.1
log date: 2018-02-20 02:59:59

––––––––––––––––––––––––––––––––––––––––
Analyzed: Freddie Mercury / Freddie Mercury (Original Version. Single Version. Rarities) CD1
––––––––––––––––––––––––––––––––––––––––

DR Peak RMS Duration Track
––––––––––––––––––––––––––––––––––––––––
DR10 0.00 dB -11.92 dB 6:40 01-Living On My Own (Original Extended Version 1985)
DR10 0.00 dB -12.06 dB 5:38 02-Foolin' Around (Unreleased 12' Mix)
DR9 0.00 dB -11.08 dB 4:03 03-How Can I Go On (Single Version 1989)
DR9 0.00 dB -10.78 dB 3:41 04-My Love Is Dangerous (Original Single Version 1985)
DR8 0.00 dB -9.38 dB 5:23 05-Love Kills (Original Extended Version 1984)
DR9 0.00 dB -10.17 dB 7:06 06-I Was Born To Love You (Original Extended Version 1985)
DR9 0.00 dB -11.21 dB 4:28 07-Made In Heaven (Alternative Version)
DR7 0.00 dB -8.93 dB 4:03 08-Lady With A Tenor Sax (Billy Squiler: Work In Progress 1986)
DR7 0.00 dB -9.96 dB 3:55 09-In My Defence (2000 Remix)
DR10 0.00 dB -11.05 dB 4:37 10-She Blows Hot & Cold (Alternative Version feat. Brian May)
DR11 0.00 dB -12.62 dB 3:40 11-The Great Pretender (Brian Malouf Remix)
DR8 0.00 dB -10.02 dB 3:39 12-Hold On (Freddie Mercury ana Jo Dare 1986)
DR9 0.00 dB -10.83 dB 3:36 13-Love Makin' Love (Demo)
DR11 0.00 dB -13.68 dB 4:09 14-Man Made Paradise (Original Version 1986)
DR11 0.00 dB -13.85 dB 5:33 15-Love Me Like There's No Tomorrow (Original Extended Version 1985)
DR10 0.00 dB -11.80 dB 3:30 16-Mr. Bad Guy (Early Version)
DR9 0.00 dB -10.63 dB 5:23 17-Love Is The Hero (12' Version Billy Squiler 1986)
––––––––––––––––––––––––––––––––––––––––

Number of tracks: 17
Official DR value: DR9

Samplerate: 44100 Hz
Channels: 2
Bits per sample: 16
Bitrate: 941 kbps
Codec: FLAC
================================================================================

Freddie Mercury - Original Version. Single Version. Rarities (2018)

Track List CD2:

01. Foolin' Around (Instrumental) [3:41]
02. Let's Turn It On (Original Extended Version 1985) [5:09]
03. How Can I Go On (Instrumental) [3:59]
04. Time (Nile Rodgers Remix 1992) [3:57]
05. Love Kills (Instrumental) [4:27]
06. There Must Be More To Life Than This (Original Version 1985) [3:01]
07. The Man From Manhattan (Eddie Howell 1976) [3:23]
08. In My Defence (Instrumental) [3:57]
09. Money Can't Buy Happiness (Demo) [2:38]
10. Your Kind Of Lover (Steve Brown Mix) [3:33]
11. Made In Heaven (Instrumental) [4:18]
12. Holding On (Demo) [4:13]
13. Horns Of Doom (Demo) [4:17]
14. She Blows Hot & Cold (Non-Album B-Side 1985) [3:27]
15. The Great Pretender (Instrumental) [3:27]
16. Stop All The Fighting (Non-Album B-Side 1985) [3:20]
17. Love Me Like There's No Tomorrow (Instrumental) [4:04]
18. Living On My Own (Remix) [3:36]
19. There Must Be More To Life Than This (Instrumental) [3:07]
20. Heaven For Everyone (The Cross Version 1988) [4:44]
21. I Was Born To Love You (Single Version 1985) [3:37]

Exact Audio Copy V1.1 from 23. June 2015

EAC extraction logfile from 17. February 2018, 11:59

Freddie Mercury / Freddie Mercury (Original Version. Single Version. Rarities) CD2

Used drive : TSSTcorpDVDWBD SH-B123L Adapter: 0 ID: 4

Read mode : Secure
Utilize accurate stream : Yes
Defeat audio cache : Yes
Make use of C2 pointers : No

Read offset correction : 6
Overread into Lead-In and Lead-Out : No
Fill up missing offset samples with silence : Yes
Delete leading and trailing silent blocks : No
Null samples used in CRC calculations : Yes
Used interface : Installed external ASPI interface

Used output format : User Defined Encoder
Selected bitrate : 768 kBit/s
Quality : High
Add ID3 tag : No
Command line compressor : C:\Program Files (x86)\Exact Audio Copy\FLAC\FLAC.EXE
Additional command line options : -6 -V -T "ARTIST=%artist%" -T "TITLE=%title%" -T "ALBUM=%albumtitle%" -T "DATE=%year%" -T "TRACKNUMBER=%tracknr%" -T "GENRE=%genre%" -T "COMMENT=%comment%" -T "BAND=%albuminterpret%" -T "ALBUMARTIST=%albuminterpret%" -T "COMPOSER=%composer%" %haslyrics%–tag-from-file=LYRICS="%lyricsfile%"%haslyrics% -T "DISCNUMBER=%cdnumber%" -T "TOTALDISCS=%totalcds%" -T "TOTALTRACKS=%numtracks%" %hascover%–picture="%coverfile%"%hascover% %source% -o %dest%


TOC of the extracted CD

Track | Start | Length | Start sector | End sector
––––––––––––––––––––––––––––-
1 | 0:00.00 | 3:40.70 | 0 | 16569
2 | 3:40.70 | 5:09.12 | 16570 | 39756
3 | 8:50.07 | 3:59.15 | 39757 | 57696
4 | 12:49.22 | 3:56.64 | 57697 | 75460
5 | 16:46.11 | 4:27.00 | 75461 | 95485
6 | 21:13.11 | 3:00.55 | 95486 | 109040
7 | 24:13.66 | 3:22.67 | 109041 | 124257
8 | 27:36.58 | 3:56.65 | 124258 | 142022
9 | 31:33.48 | 2:37.62 | 142023 | 153859
10 | 34:11.35 | 3:33.33 | 153860 | 169867
11 | 37:44.68 | 4:17.48 | 169868 | 189190
12 | 42:02.41 | 4:12.47 | 189191 | 208137
13 | 46:15.13 | 4:17.18 | 208138 | 227430
14 | 50:32.31 | 3:27.03 | 227431 | 242958
15 | 53:59.34 | 3:27.13 | 242959 | 258496
16 | 57:26.47 | 3:19.45 | 258497 | 273466
17 | 60:46.17 | 4:03.72 | 273467 | 291763
18 | 64:50.14 | 3:36.10 | 291764 | 307973
19 | 68:26.24 | 3:07.01 | 307974 | 321999
20 | 71:33.25 | 4:43.39 | 322000 | 343263
21 | 76:16.64 | 3:37.00 | 343264 | 359538


Range status and errors

Selected range

Filename E:\MUSIC\Freddie Mercury - Freddie Mercury (Original Version. Single Version. Rarities) CD2.wav

Peak level 100.0 %
Extraction speed 4.0 X
Range quality 100.0 %
Test CRC 082DD573
Copy CRC 082DD573
Copy OK

No errors occurred


AccurateRip summary

Track 1 not present in database
Track 2 not present in database
Track 3 not present in database
Track 4 not present in database
Track 5 not present in database
Track 6 not present in database
Track 7 not present in database
Track 8 not present in database
Track 9 not present in database
Track 10 not present in database
Track 11 not present in database
Track 12 not present in database
Track 13 not present in database
Track 14 not present in database
Track 15 not present in database
Track 16 not present in database
Track 17 not present in database
Track 18 not present in database
Track 19 not present in database
Track 20 not present in database
Track 21 not present in database

None of the tracks are present in the AccurateRip database

End of status report

==== Log checksum DB25EA16E96A8C4EAF0387E44A899B666CE5A148ADCD365FCC478F4EE40E252B ====

foobar2000 1.3.16 / Dynamic Range Meter 1.1.1
log date: 2018-02-20 03:01:16

––––––––––––––––––––––––––––––––––––––––
Analyzed: Freddie Mercury / Freddie Mercury (Original Version. Single Version. Rarities) CD2
––––––––––––––––––––––––––––––––––––––––

DR Peak RMS Duration Track
––––––––––––––––––––––––––––––––––––––––
DR11 0.00 dB -13.09 dB 3:41 01-Foolin' Around (Instrumental)
DR9 0.00 dB -10.79 dB 5:09 02-Let's Turn It On (Original Extended Version 1985)
DR9 0.00 dB -10.53 dB 3:59 03-How Can I Go On (Instrumental)
DR9 0.00 dB -12.45 dB 3:57 04-Time (Nile Rodgers Remix 1992)
DR10 0.00 dB -11.82 dB 4:27 05-Love Kills (Instrumental)
DR11 0.00 dB -14.65 dB 3:01 06-There Must Be More To Life Than This (Original Version 1985)
DR8 0.00 dB -11.58 dB 3:23 07-The Man From Manhattan (Eddie Howell 1976)
DR10 0.00 dB -14.45 dB 3:57 08-In My Defence (Instrumental)
DR9 0.00 dB -10.46 dB 2:38 09-Money Can't Buy Happiness (Demo)
DR11 0.00 dB -13.92 dB 3:33 10-Your Kind Of Lover (Steve Brown Mix)
DR11 0.00 dB -12.46 dB 4:18 11-Made In Heaven (Instrumental)
DR9 0.00 dB -11.38 dB 4:13 12-Holding On (Demo)
DR11 0.00 dB -13.32 dB 4:17 13-Horns Of Doom (Demo)
DR9 0.00 dB -10.93 dB 3:27 14-She Blows Hot & Cold (Non-Album B-Side 1985)
DR10 0.00 dB -12.64 dB 3:27 15-The Great Pretender (Instrumental)
DR9 0.00 dB -10.57 dB 3:20 16-Stop All The Fighting (Non-Album B-Side 1985)
DR10 0.00 dB -12.43 dB 4:04 17-Love Me Like There's No Tomorrow (Instrumental)
DR10 0.00 dB -10.75 dB 3:36 18-Living On My Own (Remix)
DR8 0.00 dB -11.68 dB 3:07 19-There Must Be More To Life Than This (Instrumental)
DR10 0.00 dB -12.71 dB 4:44 20-Heaven For Everyone (The Cross Version 1988)
DR9 0.00 dB -10.41 dB 3:37 21-I Was Born To Love You (Single Version 1985)
––––––––––––––––––––––––––––––––––––––––

Number of tracks: 21
Official DR value: DR10

Samplerate: 44100 Hz
Channels: 2
Bits per sample: 16
Bitrate: 907 kbps
Codec: FLAC
================================================================================

Freddie Mercury - Original Version. Single Version. Rarities (2018)

All thanks go to HaRD

>>> Freddie Mercury in my Blog <<<

Download from icerbox.com: