Subcategories

Freddie Mercury - Solo (2000) [3CD Box Set] Repost

Posted By: v3122
Freddie Mercury - Solo (2000) [3CD Box Set] Repost

Freddie Mercury - Solo (2000)
EAC | Flac(Image) + Cue + Log & MP3 CBR 320Kbps
Parlophone/Mercury, 7243 5 28047 2 6 | ~ 706 or 256 Mb | Artwork(jpg) -> 30 Mb
Pop Rock / Classical Crossover

Although it's only a teaser for a forthcoming ten-CD set, the three-CD Solo box is a pretty comprehensive look at Freddie Mercury's less rock-oriented solo career. Mercury's two albums from the '80s, 1985's Mr. Bad Guy and 1988's Barcelona, are repackaged in their entirety as separate discs; there's also a third disc of rarities, including Mercury's pre-Queen solo single "I Can Hear Music" (recorded as Larry Lurex), his movie soundtrack contribution "Love Kills," and his non-LP U.K. hit cover of "The Great Pretender." In addition, the set has been remastered and comes with a 28-page booklet.

by Steve Huey, allmusic
Freddie Mercury - Solo (2000):

Freddie Mercury - Solo (2000) [3CD Box Set] Repost

Tracklist CD1 - Freddie Mercury - Mr. Bad Guy:

01. Let's Turn it On (03:42)
02. Made in Heaven (04:06)
03. I Was Born To Love You (03:39)
04. Foolin' Around (03:29)
05. Your Kind of Lover (03:33)
06. Mr. Bad Guy (04:10)
07. Man Made Paradise (04:09)
08. There Must Be More To Life Than This (03:00)
09. Living On My Own (03:23)
10. My Love is Dangerous (03:43)
11. Love Me Like There's No Tomorrow (03:47)

Exact Audio Copy V1.0 beta 3 from 29. August 2011

Отчёт EAC об извлечении, выполненном 25. августа 2014, 14:55

Freddie Mercury / Mr. Bad Guy

Дисковод: hp DVD-RAM SW830 Adapter: 0 ID: 0

Режим чтения : Достоверность
Использование точного потока : Да
Отключение кэша аудио : Да
Использование указателей C2 : Нет

Коррекция смещения при чтении : 6
Способность читать области Lead-in и Lead-out : Нет
Заполнение пропущенных сэмплов тишиной : Да
Удаление блоков с тишиной в начале и конце : Нет
При вычислениях CRC использовались нулевые сэмплы : Да
Интерфейс : Встроенный Win32-интерфейс для Win NT/2000

Выходной формат : Пользовательский кодировщик
Выбранный битрейт : 896 kBit/s
Качество : Высокий
Добавление ID3-тега : Нет
Утилита сжатия : C:\Program Files (x86)\Exact Audio Copy\Flac\flac.exe
Дополнительные параметры : -V -8 %source%


TOC извлечённого CD

Трек | Старт | Длительность | Начальный сектор | Конечный сектор
––––––––––––––––––––––––––––––––––-
1 | 0:00.00 | 3:42.67 | 0 | 16716
2 | 3:42.67 | 4:06.13 | 16717 | 35179
3 | 7:49.05 | 3:39.27 | 35180 | 51631
4 | 11:28.32 | 3:29.45 | 51632 | 67351
5 | 14:58.02 | 3:33.33 | 67352 | 83359
6 | 18:31.35 | 4:10.25 | 83360 | 102134
7 | 22:41.60 | 4:09.37 | 102135 | 120846
8 | 26:51.22 | 3:00.73 | 120847 | 134419
9 | 29:52.20 | 3:23.40 | 134420 | 149684
10 | 33:15.60 | 3:43.17 | 149685 | 166426
11 | 36:59.02 | 3:47.20 | 166427 | 183471


Характеристики диапазона извлечения и сообщения об ошибках

Выбранный диапазон

Имя файла F:\Freddie Mercury - Mr. Bad Guy.wav

Пиковый уровень 99.9 %
Скорость извлечения 7.2 X
Качество диапазона 100.0 %
CRC теста EB0E2C6E
CRC копии EB0E2C6E
Копирование… OK

Ошибок не произошло


AccurateRip: сводка

Трек 1 : извлечено точно (доверие 41) [F248191C] (AR v2)
Трек 2 : извлечено точно (доверие 41) [50ED7865] (AR v2)
Трек 3 : извлечено точно (доверие 41) [B73EB835] (AR v2)
Трек 4 : извлечено точно (доверие 41) [84D1E3B5] (AR v2)
Трек 5 : извлечено точно (доверие 41) [49377C0E] (AR v2)
Трек 6 : извлечено точно (доверие 41) [5DF60CB5] (AR v2)
Трек 7 : извлечено точно (доверие 41) [CCB7FB37] (AR v2)
Трек 8 : извлечено точно (доверие 41) [41D8F5D5] (AR v2)
Трек 9 : извлечено точно (доверие 41) [5646C5E5] (AR v2)
Трек 10 : извлечено точно (доверие 41) [9213C283] (AR v2)
Трек 11 : извлечено точно (доверие 41) [217DC6F8] (AR v2)

Все треки извлечены точно

Конец отчёта

==== Контрольная сумма отчёта 520D933ECD70B7D71AF71890F80D31BB080FE06F4110817624E58D3B6BEBA469 ====


[CUETools log; Date: 13.01.2019 8:56:07; Version: 2.1.4]
[AccurateRip ID: 0010f4bb-0092883f-82098e0b] found.
Track [ CRC | V2 ] Status
01 [814a37cd|f248191c] (076+085/206) Accurately ripped
02 [8ea30ded|50ed7865] (075+087/207) Accurately ripped
03 [ae25930e|b73eb835] (076+087/208) Accurately ripped
04 [a1ed730a|84d1e3b5] (075+086/206) Accurately ripped
05 [4467a08e|49377c0e] (076+086/207) Accurately ripped
06 [e0f1e6eb|5df60cb5] (076+085/206) Accurately ripped
07 [a415d7ec|ccb7fb37] (076+085/205) Accurately ripped
08 [858a89a8|41d8f5d5] (075+087/206) Accurately ripped
09 [4388b6bc|5646c5e5] (075+086/206) Accurately ripped
10 [6923746e|9213c283] (074+085/204) Accurately ripped
11 [39bf710a|217dc6f8] (075+087/206) Accurately ripped
Offsetted by 412:
01 [8bb98202] (019/206) Accurately ripped
02 [9a892fcc] (019/207) Accurately ripped
03 [8cfb41b1] (019/208) Accurately ripped
04 [1692eb92] (019/206) Accurately ripped
05 [4be44ccc] (019/207) Accurately ripped
06 [59a9320e] (019/206) Accurately ripped
07 [cf91f5f9] (018/205) Accurately ripped
08 [91fb74c3] (018/206) Accurately ripped
09 [3768feb1] (019/206) Accurately ripped
10 [434bbd68] (019/204) Accurately ripped
11 [455de20b] (018/206) Accurately ripped
Offsetted by -1188:
01 [f6bf696a] (000/206) No match (V2 was not tested)
02 [eeb2ade4] (000/207) No match (V2 was not tested)
03 [37f4aa3a] (000/208) No match (V2 was not tested)
04 [222bc072] (000/206) No match (V2 was not tested)
05 [ad85db9c] (000/207) No match (V2 was not tested)
06 [7fdc1606] (000/206) No match
07 [a720141f] (000/205) No match
08 [9b0d98e1] (000/206) No match
09 [9054b9ee] (000/206) No match
10 [3f012252] (000/204) No match
11 [1f411bf3] (000/206) No match

Track Peak [ CRC32 ] [W/O NULL] [ LOG ]
– 99,9 [EB0E2C6E] [48CEA0D7] CRC32
01 98,1 [8669B94C] [F51CEF03]
02 92,3 [A31C0B8F] [F661280C]
03 99,9 [88DB6488] [BB3D1605]
04 99,1 [F0FA9661] [18858042]
05 97,5 [66371DE5] [9617ADC5]
06 94,1 [44487D93] [3AF34F76]
07 95,2 [CF5D7EFF] [628A85EB]
08 86,8 [5EA78918] [5D1A31E3]
09 99,8 [B9F233BC] [9DAF6988]
10 98,8 [78432EA6] [B15C276F]
11 93,6 [0EE22457] [131E13D4]


Freddie Mercury - Solo (2000) [3CD Box Set] Repost

Tracklist CD2 - Freddie Mercury & Montserrat Caballé - Barcelona:

01. Barcelona (05:39)
02. La Japonaise (04:49)
03. The Fallen Priest (05:46)
04. Ensueno (04:21)
05. The Golden Boy (06:04)
06. Guide Me Home (02:49)
07. How Can I Go On (03:51)
08. Overture Piccante (06:39)

Exact Audio Copy V1.0 beta 3 from 29. August 2011

Отчёт EAC об извлечении, выполненном 25. августа 2014, 15:25

Freddie Mercury & Montserrat Caballe / Barcelona

Дисковод: hp DVD-RAM SW830 Adapter: 0 ID: 0

Режим чтения : Достоверность
Использование точного потока : Да
Отключение кэша аудио : Да
Использование указателей C2 : Нет

Коррекция смещения при чтении : 6
Способность читать области Lead-in и Lead-out : Нет
Заполнение пропущенных сэмплов тишиной : Да
Удаление блоков с тишиной в начале и конце : Нет
При вычислениях CRC использовались нулевые сэмплы : Да
Интерфейс : Встроенный Win32-интерфейс для Win NT/2000

Выходной формат : Пользовательский кодировщик
Выбранный битрейт : 896 kBit/s
Качество : Высокий
Добавление ID3-тега : Нет
Утилита сжатия : C:\Program Files (x86)\Exact Audio Copy\Flac\flac.exe
Дополнительные параметры : -V -8 %source%


TOC извлечённого CD

Трек | Старт | Длительность | Начальный сектор | Конечный сектор
––––––––––––––––––––––––––––––––––-
1 | 0:00.00 | 5:39.37 | 0 | 25461
2 | 5:39.37 | 4:49.25 | 25462 | 47161
3 | 10:28.62 | 5:46.00 | 47162 | 73111
4 | 16:14.62 | 4:21.40 | 73112 | 92726
5 | 20:36.27 | 6:04.30 | 92727 | 120056
6 | 26:40.57 | 2:49.73 | 120057 | 132804
7 | 29:30.55 | 3:51.25 | 132805 | 150154
8 | 33:22.05 | 6:39.47 | 150155 | 180126


Характеристики диапазона извлечения и сообщения об ошибках

Выбранный диапазон

Имя файла F:\Freddie Mercury & Montserrat Caballe - Barcelona.wav

Пиковый уровень 99.1 %
Скорость извлечения 7.1 X
Качество диапазона 99.9 %
CRC теста 487627CA
CRC копии 487627CA
Копирование… OK

Ошибок не произошло


AccurateRip: сводка

Трек 1 : извлечено точно (доверие 36) [F5123752] (AR v2)
Трек 2 : извлечено точно (доверие 35) [0202FA54] (AR v2)
Трек 3 : извлечено точно (доверие 35) [0D5589FF] (AR v2)
Трек 4 : извлечено точно (доверие 35) [E7018D0E] (AR v2)
Трек 5 : извлечено точно (доверие 35) [179904B2] (AR v2)
Трек 6 : извлечено точно (доверие 35) [894351C9] (AR v2)
Трек 7 : извлечено точно (доверие 35) [6BEF3809] (AR v2)
Трек 8 : извлечено точно (доверие 35) [EE43DE5E] (AR v2)

Все треки извлечены точно

Конец отчёта

==== Контрольная сумма отчёта A766A737C5436A91D6E2CC2E75BB73FAECF1E4EBCC2792A70436A3898BFAF881 ====


[CUETools log; Date: 13.01.2019 8:58:41; Version: 2.1.4]
[AccurateRip ID: 000c8967-0052b736-57096108] found.
Track [ CRC | V2 ] Status
01 [b8e99be6|f5123752] (070+079/213) Accurately ripped
02 [6a574039|0202fa54] (069+077/208) Accurately ripped
03 [3cf402c2|0d5589ff] (068+078/208) Accurately ripped
04 [2fc031c3|e7018d0e] (069+078/209) Accurately ripped
05 [7cfa4225|179904b2] (066+078/207) Accurately ripped
06 [f27289ca|894351c9] (066+078/206) Accurately ripped
07 [1bffab87|6bef3809] (066+079/208) Accurately ripped
08 [0c909e2f|ee43de5e] (060+077/196) Accurately ripped
Offsetted by -611:
01 [d158d0c0] (008/213) Accurately ripped
02 [d643262a] (007/208) Accurately ripped
03 [618050ed] (007/208) Accurately ripped
04 [0639f8a7] (007/209) Accurately ripped
05 [c1803791] (008/207) Accurately ripped
06 [41cc25f1] (007/206) Accurately ripped
07 [70b92f02] (008/208) Accurately ripped
08 [6015e34b] (006/196) Accurately ripped
Offsetted by 439:
01 [5aaea834] (000/213) No match (V2 was not tested)
02 [35ce97ad] (020/208) Accurately ripped
03 [2daa317f] (020/208) Accurately ripped
04 [9080a162] (020/209) Accurately ripped
05 [3a3d2b7c] (020/207) Accurately ripped
06 [c6b6f97e] (020/206) Accurately ripped
07 [147ad2be] (020/208) Accurately ripped
08 [afe00003] (019/196) Accurately ripped

Track Peak [ CRC32 ] [W/O NULL] [ LOG ]
– 99,1 [487627CA] [AE464024] CRC32
01 99,1 [2E494FCE] [EB1BCF9F]
02 94,6 [3C24C190] [22FA8E8C]
03 94,6 [FFC98F2E] [1E726DA5]
04 65,8 [F3BC56D4] [4F3B4698]
05 89,7 [0A3AEA90] [112E3EDC]
06 89,3 [256CF662] [4C2C5846]
07 87,6 [FBAF50F2] [149BF687]
08 94,6 [EFC6DDD8] [958DA89A]


Freddie Mercury - Solo (2000) [3CD Box Set] Repost

Tracklist CD3 - Freddie Mercury - Solo - Bonus CD:

01. I Can Hear Music - (Larry Lurex, 1973 Single) (03:30)
02. Love Kills - (Original 1984 Single Version) (04:31)
03. The Great Pretender - (Original 1987 Single Version) (03:28)
04. Living On My Own - (1993 Radio Mix) (03:39)
05. In My Defence - (2000 ReMix) (03:55)
06. Time - (2000 ReMix) (04:02)
07. Love Kills - (Rock Mix) (04:27)

Exact Audio Copy V1.0 beta 3 from 29. August 2011

Отчёт EAC об извлечении, выполненном 25. августа 2014, 15:54

Freddie Mercury / Solo - Bonus CD

Дисковод: hp DVD-RAM SW830 Adapter: 0 ID: 0

Режим чтения : Достоверность
Использование точного потока : Да
Отключение кэша аудио : Да
Использование указателей C2 : Нет

Коррекция смещения при чтении : 6
Способность читать области Lead-in и Lead-out : Нет
Заполнение пропущенных сэмплов тишиной : Да
Удаление блоков с тишиной в начале и конце : Нет
При вычислениях CRC использовались нулевые сэмплы : Да
Интерфейс : Встроенный Win32-интерфейс для Win NT/2000

Выходной формат : Пользовательский кодировщик
Выбранный битрейт : 896 kBit/s
Качество : Высокий
Добавление ID3-тега : Нет
Утилита сжатия : C:\Program Files (x86)\Exact Audio Copy\Flac\flac.exe
Дополнительные параметры : -V -8 %source%


TOC извлечённого CD

Трек | Старт | Длительность | Начальный сектор | Конечный сектор
––––––––––––––––––––––––––––––––––-
1 | 0:00.00 | 3:30.07 | 0 | 15756
2 | 3:30.07 | 4:31.68 | 15757 | 36149
3 | 8:02.00 | 3:28.60 | 36150 | 51809
4 | 11:30.60 | 3:39.37 | 51810 | 68271
5 | 15:10.22 | 3:55.33 | 68272 | 85929
6 | 19:05.55 | 4:02.47 | 85930 | 104126
7 | 23:08.27 | 4:27.40 | 104127 | 124191


Характеристики диапазона извлечения и сообщения об ошибках

Выбранный диапазон

Имя файла F:\Freddie Mercury - Solo - Bonus CD.wav

Пиковый уровень 99.9 %
Скорость извлечения 6.5 X
Качество диапазона 100.0 %
CRC теста AFCCA0D2
CRC копии AFCCA0D2
Копирование… OK

Ошибок не произошло


AccurateRip: сводка

Трек 1 : извлечено точно (доверие 26) [4AC6938C] (AR v2)
Трек 2 : извлечено точно (доверие 26) [49921A3C] (AR v2)
Трек 3 : извлечено точно (доверие 26) [CAAA0259] (AR v2)
Трек 4 : извлечено точно (доверие 26) [91E200F6] (AR v2)
Трек 5 : извлечено точно (доверие 26) [E89F9A2D] (AR v2)
Трек 6 : извлечено точно (доверие 26) [C2FFD1DC] (AR v2)
Трек 7 : извлечено точно (доверие 26) [B714FDE7] (AR v2)

Все треки извлечены точно

Конец отчёта

==== Контрольная сумма отчёта FF1952EF6D2E5CB6CA0DE05B1AB2EFB8DCA03B5C0920A81C34B1EB55EABA07C4 ====


[CUETools log; Date: 13.01.2019 9:00:40; Version: 2.1.4]
[AccurateRip ID: 00076b5e-002ca7ea-4e067707] found.
Track [ CRC | V2 ] Status
01 [41e7390c|4ac6938c] (047+057/156) Accurately ripped
02 [e46bb0b5|49921a3c] (047+057/156) Accurately ripped
03 [d05bafc5|caaa0259] (047+057/156) Accurately ripped
04 [15933b3d|91e200f6] (046+057/154) Accurately ripped
05 [d09c48bd|e89f9a2d] (047+057/156) Accurately ripped
06 [4eb43fe9|c2ffd1dc] (047+057/156) Accurately ripped
07 [555508dd|b714fde7] (047+056/155) Accurately ripped
Offsetted by 595:
01 [c0ec014d] (007/156) Accurately ripped
02 [003c57ea] (007/156) Accurately ripped
03 [1f3302d2] (007/156) Accurately ripped
04 [19c91eca] (007/154) Accurately ripped
05 [24ba865f] (007/156) Accurately ripped
06 [f2c0f195] (007/156) Accurately ripped
07 [2cb6cde7] (007/155) Accurately ripped
Offsetted by -1877:
01 [10b92895] (000/156) No match (V2 was not tested)
02 [795037d2] (000/156) No match (V2 was not tested)
03 [2213ef7a] (000/156) No match (V2 was not tested)
04 [2cdd2f72] (000/154) No match (V2 was not tested)
05 [e2c925ef] (000/156) No match (V2 was not tested)
06 [9af005f5] (000/156) No match
07 [a46b0ab7] (000/155) No match
Offsetted by 845:
01 [dc79d8ab] (000/156) No match (V2 was not tested)
02 [035152e0] (000/156) No match (V2 was not tested)
03 [1773ab18] (000/156) No match (V2 was not tested)
04 [64b29610] (000/154) No match (V2 was not tested)
05 [af5536db] (000/156) No match (V2 was not tested)
06 [ea3c98bd] (000/156) No match (V2 was not tested)
07 [e3b70293] (000/155) No match (V2 was not tested)

Track Peak [ CRC32 ] [W/O NULL] [ LOG ]
– 99,9 [AFCCA0D2] [BC9C0068] CRC32
01 89,0 [783E1796] [F7938310]
02 96,5 [D43055BA] [7C688496]
03 96,5 [24C8203C] [090264E7]
04 99,9 [6CC22C46] [B7A7E2C6]
05 92,0 [43A91AA3] [BA4AD635]
06 93,5 [B4A9D2D1] [D53A3FCA]
07 97,0 [70D5462D] [2FF1592B]


Freddie Mercury - Solo (2000) [3CD Box Set] Repost

All thanks go to the original releaser

Freddie Mercury in my Blog

Download Freddie Mercury - Solo (2000):