Subcategories

Fredrika Stahl - A Fraction Of You (2006) [Japanese Edition]

Posted By: Designol
Fredrika Stahl - A Fraction Of You (2006) [Japanese Edition]

Fredrika Stahl - A Fraction Of You (2006)
EAC | FLAC | Image (Cue&Log) ~ 330 Mb | Mp3 (CBR320) ~ 130 Mb | Scans included
Vocal Jazz, Jazz-Pop | Label: BMG Japan/Vogue | # BVCJ-31045 | 00:50:00

Swedish-born jazz and pop vocalist Fredrika Stahl's career got going when she met producer Geef, which led to a meeting with pianist Tom McClung, who then formed a band around her and helped land her a major-label deal with the French arm of BMG, Vogue Records. Born in Stockholm on October 24, 1984, Stahl spent the majority of her preteen years in France, before returning to Sweden to finish schooling. Upon her graduation, Stahl found her way back to France, and met the people who would help make her a well-known name. Her debut album, A Fraction of You, was unveiled in the summer of 2006, and she followed the release with a number of performances, sharing stages with such artists as Erick Poirier, Ichiro Onoe, and Manuel Marches. Stahl released her second album, Tributaries, in 2008 on the Jive label.

Chris True, Allmusic.com

Fredrika Stahl - A Fraction Of You (2006) [Japanese Edition]



Tracklist:

01. A Little Kiss (4:32)
02. Game Over (3:39)
03. Ou Veux-Tu Aller? (3:33)
04. Please Let Me In (3:27)
05. Destiny (4:31)
06. A Fraction Of You (3:33)
07. What About… (3:44)
08. Seems So Simple (3:23)
09. The Picture Of You (en duo avec Bruno Edjenguele) (5:01)
10. Try Again (3:33)
11. Les Jeux Sont Faits (3:40)
12. Where Are You Going? (3:35)
13. You (Bonus Track) (3:50)


Exact Audio Copy V0.99 prebeta 4 from 23. January 2008

EAC extraction logfile from 9. August 2008, 19:43

Fredrika Stahl / A Fraction Of You (Japan)

Used drive : HL-DT-STDVDRAM GSA-H62N Adapter: 2 ID: 0

Read mode : Secure
Utilize accurate stream : Yes
Defeat audio cache : Yes
Make use of C2 pointers : No

Read offset correction : 667
Overread into Lead-In and Lead-Out : No
Fill up missing offset samples with silence : Yes
Delete leading and trailing silent blocks : No
Null samples used in CRC calculations : Yes
Used interface : Installed external ASPI interface

Used output format : Internal WAV Routines
Sample format : 44.100 Hz; 16 Bit; Stereo


TOC of the extracted CD

Track | Start | Length | Start sector | End sector
––––––––––––––––––––––––––––-
1 | 0:00.00 | 4:32.30 | 0 | 20429
2 | 4:32.30 | 3:39.12 | 20430 | 36866
3 | 8:11.42 | 3:33.00 | 36867 | 52841
4 | 11:44.42 | 3:27.06 | 52842 | 68372
5 | 15:11.48 | 4:30.60 | 68373 | 88682
6 | 19:42.33 | 3:32.42 | 88683 | 104624
7 | 23:15.00 | 3:44.01 | 104625 | 121425
8 | 26:59.01 | 3:22.49 | 121426 | 136624
9 | 30:21.50 | 5:00.45 | 136625 | 159169
10 | 35:22.20 | 3:33.05 | 159170 | 175149
11 | 38:55.25 | 3:40.00 | 175150 | 191649
12 | 42:35.25 | 3:34.42 | 191650 | 207741
13 | 46:09.67 | 3:50.22 | 207742 | 225013


Range status and errors

Selected range

Filename D:\Temp\A Fraction Of You (Japan).wav

Peak level 100.0 %
Range quality 99.9 %
Copy CRC D6E3FA63
Copy OK

No errors occurred


AccurateRip summary

Track 1 not present in database
Track 2 not present in database
Track 3 not present in database
Track 4 not present in database
Track 5 not present in database
Track 6 not present in database
Track 7 not present in database
Track 8 not present in database
Track 9 not present in database
Track 10 not present in database
Track 11 not present in database
Track 12 not present in database
Track 13 not present in database

None of the tracks are present in the AccurateRip database

End of status report


foobar2000 1.2 / Dynamic Range Meter 1.1.1
log date: 2017-09-13 00:56:38

––––––––––––––––––––––––––––––––––––––––
Analyzed: Fredrika Stahl / A Fraction Of You (Japan)
––––––––––––––––––––––––––––––––––––––––

DR Peak RMS Duration Track
––––––––––––––––––––––––––––––––––––––––
DR9 -0.10 dB -10.57 dB 4:32 01-A Little Kiss
DR9 -0.48 dB -11.91 dB 3:39 02-Game Over
DR8 -0.10 dB -10.26 dB 3:33 03-Ou Veux-Tu Aller?
DR9 -0.10 dB -10.54 dB 3:27 04-Please Let Me In
DR7 -0.10 dB -9.12 dB 4:31 05-Destiny
DR9 -0.10 dB -12.14 dB 3:33 06-A Fraction Of You
DR6 -0.51 dB -8.67 dB 3:44 07-What About…
DR7 -0.10 dB -9.34 dB 3:23 08-Seems So Simple
DR7 -0.10 dB -9.75 dB 5:01 09-The Picture Of You (en duo avec Bruno Edjenguele)
DR10 -0.68 dB -13.34 dB 3:33 10-Try Again
DR9 0.00 dB -12.06 dB 3:40 11-Les Jeux Sont Faits
DR8 -0.10 dB -9.98 dB 3:35 12-Where Are You Going?
DR10 -0.01 dB -11.88 dB 3:50 13-You (Bonus Track)
––––––––––––––––––––––––––––––––––––––––

Number of tracks: 13
Official DR value: DR8

Samplerate: 44100 Hz
Channels: 2
Bits per sample: 16
Bitrate: 875 kbps
Codec: FLAC
================================================================================

Fredrika Stahl - A Fraction Of You (2006) [Japanese Edition]

Fredrika Stahl - A Fraction Of You (2006) [Japanese Edition]

All thanks to original releaser - Yury76

More interesting music in My Blog