Free - Free (1969) [1987, Island CID 9104]

Posted By: Oksana_m
Free - Free (1969) [1987, Island CID 9104]

Free - Free (1969)
EAC | Flac(Image) + Cue + Log > 216 Mb | Mp3 CBR 320Kpbs > 85 Mb
Classic Rock | TT - 36:00 | Label: Island | Cat. # CID 9104 | UK
Scans (Jpg) > 49 Mb | NitroFlare, FileFactory

Free's second album was recorded with the band itself in considerable turmoil as principle songwriters Paul Rodgers and Andy Fraser demanded strict discipline from their bandmates, and guitarist Paul Kossoff, in particular, equally demanded the spontaneity and freedom that had characterized the group's debut. It was an awkward period that saw both Kossoff and drummer Simon Kirke come close to quitting, and only the intervention of label chief Chris Blackwell seems to have prevented it. Few of these tensions are evident on the finished album – tribute, again, to Blackwell's powers of diplomacy. He replaced original producer Guy Stevens early into the sessions and, having reminded both warring parties where the band's strengths lie, proceeded to coax out an album that stands alongside its predecessor as a benchmark of British blues at the turn of the 1960s.

by Dave Thompson, allmusic.com
Free - Free (1969) [1987, Island CID 9104]


*********


Free - Free (1969) [1987, Island CID 9104]

Tracklist:

01. I'll Be Creepin' 3:32
02. Songs Of Yesterday 3:37
03. Lying In The Sunshine 3:59
04. Trouble On Double Time 3:27
05. Mouthfull Of Grass 3:39
06. Woman 3:53
07. Free Me 5:28
08. Broad Daylight 3:20
09. Mourning Sad Morning 5:04

Exact Audio Copy V1.0 beta 3 from 29. August 2011

EAC extraction logfile from 2. November 2014, 10:36

Free / Free (CID9104)

Used drive : PLEXTOR DVDR PX-891SA Adapter: 3 ID: 0

Read mode : Secure
Utilize accurate stream : Yes
Defeat audio cache : Yes
Make use of C2 pointers : No

Read offset correction : 6
Overread into Lead-In and Lead-Out : No
Fill up missing offset samples with silence : Yes
Delete leading and trailing silent blocks : No
Null samples used in CRC calculations : Yes
Used interface : Native Win32 interface for Win NT & 2000

Used output format : User Defined Encoder
Selected bitrate : 1024 kBit/s
Quality : High
Add ID3 tag : No
Command line compressor : C:\Program Files\Exact Audio Copy\Flac\flac.exe
Additional command line options : -V -8 -T "Genre=%genre%" -T "Artist=%artist%" -T "Title=%title%" -T "Album=%albumtitle%" -T "Date=%year%" -T "Tracknumber=%tracknr%" -T "Comment=%comment%" %source%


TOC of the extracted CD

Track | Start | Length | Start sector | End sector
––––––––––––––––––––––––––––-
1 | 0:00.00 | 3:31.45 | 0 | 15869
2 | 3:31.45 | 3:37.37 | 15870 | 32181
3 | 7:09.07 | 3:59.18 | 32182 | 50124
4 | 11:08.25 | 3:27.30 | 50125 | 65679
5 | 14:35.55 | 3:38.67 | 65680 | 82096
6 | 18:14.47 | 3:53.25 | 82097 | 99596
7 | 22:07.72 | 5:28.23 | 99597 | 124219
8 | 27:36.20 | 3:19.62 | 124220 | 139206
9 | 30:56.07 | 5:03.68 | 139207 | 161999


Range status and errors

Selected range

Filename H:\dafnaplus\Free ‎- Free (Island CID 9104)\Free - Free (CID9104).wav

Peak level 98.5 %
Extraction speed 8.1 X
Range quality 99.9 %
Test CRC AB5DD207
Copy CRC AB5DD207
Copy OK

No errors occurred


AccurateRip summary

Track 1 accurately ripped (confidence 6) [9564AA4E] (AR v2)
Track 2 accurately ripped (confidence 6) [1E7D8E38] (AR v2)
Track 3 accurately ripped (confidence 6) [59719C4E] (AR v2)
Track 4 accurately ripped (confidence 6) [A330F8BD] (AR v2)
Track 5 accurately ripped (confidence 6) [3F194853] (AR v2)
Track 6 accurately ripped (confidence 6) [0D68DD1B] (AR v2)
Track 7 accurately ripped (confidence 6) [BC824600] (AR v2)
Track 8 accurately ripped (confidence 6) [A81FA659] (AR v2)
Track 9 accurately ripped (confidence 6) [D27FA649] (AR v2)

All tracks accurately ripped

End of status report

==== Log checksum 4EF67A6FDC5B3EACB2779F71E26DE82726217A0BE7EDEC8DAADE6BC5460F71C3 ====

foobar2000 1.2.9 / Dynamic Range Meter 1.1.1
log date: 2016-11-24 17:15:03

––––––––––––––––––––––––––––––––––––––––
Analyzed: Free / Free (CID9104)
––––––––––––––––––––––––––––––––––––––––

DR Peak RMS Duration Track
––––––––––––––––––––––––––––––––––––––––
DR12 -0.40 dB -15.23 dB 3:32 01-I'll Be Creepin'
DR12 -0.80 dB -15.56 dB 3:37 02-Songs Of Yesterday
DR11 -3.81 dB -18.32 dB 3:59 03-Lying In The Sunshine
DR11 -1.12 dB -15.24 dB 3:27 04-Trouble On Double Time
DR9 -5.10 dB -18.32 dB 3:39 05-Mouthfull Of Grass
DR13 -0.13 dB -16.21 dB 3:53 06-Woman
DR12 -2.52 dB -17.75 dB 5:28 07-Free Me
DR13 -0.77 dB -16.75 dB 3:20 08-Broad Daylight
DR12 -2.20 dB -18.40 dB 5:04 09-Mourning Sad Morning
––––––––––––––––––––––––––––––––––––––––

Number of tracks: 9
Official DR value: DR12

Samplerate: 44100 Hz
Channels: 2
Bits per sample: 16
Bitrate: 815 kbps
Codec: FLAC

[CUETools log; Date: 02.11.2014 18:00:00; Version: 2.1.5]
[CTDB TOCID: gR4RXrBdf85aH_TzmO2vUUCIivc-] found.
Track | CTDB Status
1 | (4/4) Accurately ripped
2 | (4/4) Accurately ripped
3 | (4/4) Accurately ripped
4 | (4/4) Accurately ripped
5 | (4/4) Accurately ripped
6 | (4/4) Accurately ripped
7 | (4/4) Accurately ripped
8 | (4/4) Accurately ripped
9 | (4/4) Accurately ripped
[AccurateRip ID: 000bc3a2-00572ea3-7c087009] found.
Track [ CRC | V2 ] Status
01 [bb9a615b|9564aa4e] (08+06/17) Accurately ripped
02 [ab1a7d0c|1e7d8e38] (08+06/17) Accurately ripped
03 [eac09a03|59719c4e] (08+06/17) Accurately ripped
04 [4e0d8b98|a330f8bd] (08+06/17) Accurately ripped
05 [33fd773b|3f194853] (08+06/17) Accurately ripped
06 [97c24fe0|0d68dd1b] (08+06/17) Accurately ripped
07 [1dc69137|bc824600] (08+06/17) Accurately ripped
08 [160cb2da|a81fa659] (09+06/18) Accurately ripped
09 [e7566ae8|d27fa649] (08+06/17) Accurately ripped
Offsetted by -229:
01 [8c1e0983] (03/17) Accurately ripped
02 [dea60982] (03/17) Accurately ripped
03 [cce23e8e] (03/17) Accurately ripped
04 [74cea933] (03/17) Accurately ripped
05 [a0a22332] (03/17) Accurately ripped
06 [2ca01531] (03/17) Accurately ripped
07 [d0e52752] (03/17) Accurately ripped
08 [853e6cd1] (03/18) Accurately ripped
09 [c1982858] (03/17) Accurately ripped

Track Peak [ CRC32 ] [W/O NULL] [ LOG ]
– 98,5 [AB5DD207] [970AB096] CRC32
01 95,5 [43654F00] [4165A0AE]
02 91,2 [9C74600D] [0F248692]
03 64,4 [EF76D74D] [99FECA3E]
04 87,9 [66A7C0AC] [9FB9E0D6]
05 55,6 [89DF0011] [895B8C03]
06 98,5 [8235ECA4] [CEE2B45B]
07 74,8 [553354F4] [B1EA91BF]
08 91,5 [C75CA2A0] [5D134599]
09 77,6 [BB8B68F0] [85B50D18]

Free - Free (1969) [1987, Island CID 9104]

All thanks go to original releaser dafnaplus