Subcategories

Free - The Best Of Free: All Right Now (1991)

Posted By: popsakov
Free - The Best Of Free: All Right Now (1991)

Free - The Best Of Free: All Right Now (1991)
EAC Rip | FLAC (Img) + Cue + Log ~ 353 Mb | MP3 CBR320 ~ 143 Mb
Scans Included (JPG, 300 dpi) | RAR 5% Recovery
Rock, Hard Rock, Blues Rock | Island Records #261 378

Free were an English rock band formed in London in 1968, best known for their 1970 signature song "All Right Now". They disbanded in 1973 and lead singer Paul Rodgers went on to become a frontman of the band Bad Company along with Simon Kirke on drums. Lead guitarist Paul Kossoff formed Back Street Crawler in 1975, but died from a pulmonary embolism at the age of 25 in 1976. Bassist Andy Fraser formed Sharks.

The band became famed for their sensational live shows and nonstop touring. However, early studio albums did not sell very well until the release of Fire and Water, which featured the massive hit "All Right Now". The song helped secure them a place at the Isle of Wight Festival 1970, where they played to 600,000 people.

By the early 1970s, Free became one of the biggest-selling British blues rock groups; by the time the band retired in 1973, they had sold more than 20 million albums around the world and had played more than 700 arena and festival concerts. "All Right Now" remains a rock staple and has been entered in ASCAP's "One Million" airplay singles club.

Rolling Stone has referred to the band as "British hard rock pioneers". The magazine ranked Rodgers No. 55 in its list of the "100 Greatest Singers of All Time", while Kossoff was ranked No. 51 in its list of the "100 Greatest Guitarists of All Time".

The Best of Free: All Right Now is a 1991 album by the band Free. All the tracks on this album were remixed by Bob Clearmountain. On 18 February 1991, the album was awarded a silver certification by the BPI, for UK album sales of over 60,000 units. The album entered the UK Albums Chart on 2 March 1991, it reached number 9 and stayed in the charts for 9 weeks.
~ Wiki

***************

Free - The Best Of Free: All Right Now (1991)

Free - The Best Of Free: All Right Now (1991)

Track List:

01. Wishing Well [3:36]
02. All Right Now [4:15]
03. Little Bit Of love [2:35]
04. Come Together In The Morning [4:29]
05. The Stealer [3:15]
06. Sail On [3:26]
07. Mr. Big [5:57]
08. My Brother Jake [2:54]
09. The Hunter [4:15]
10. Be My Friend [4:14]
11. Travellin' In Style [4:02]
12. Fire And Water [4:00]
13. Travelling Man [3:20]
14. Don't Say You Love Me [5:33]

Exact Audio Copy V1.0 beta 3 from 29. August 2011

EAC extraction logfile from 13. February 2018, 20:34

Free / All Right Now (The Best Of Free)

Used drive : PLEXTOR DVDR PX-740A Adapter: 0 ID: 0

Read mode : Secure
Utilize accurate stream : Yes
Defeat audio cache : Yes
Make use of C2 pointers : No

Read offset correction : 618
Overread into Lead-In and Lead-Out : No
Fill up missing offset samples with silence : Yes
Delete leading and trailing silent blocks : No
Null samples used in CRC calculations : Yes
Used interface : Native Win32 interface for Win NT & 2000

Used output format : Internal WAV Routines
Sample format : 44.100 Hz; 16 Bit; Stereo


TOC of the extracted CD

Track | Start | Length | Start sector | End sector
––––––––––––––––––––––––––––-
1 | 0:00.32 | 3:36.15 | 32 | 16246
2 | 3:36.47 | 4:14.40 | 16247 | 35336
3 | 7:51.12 | 2:35.30 | 35337 | 46991
4 | 10:26.42 | 4:28.68 | 46992 | 67159
5 | 14:55.35 | 3:15.27 | 67160 | 81811
6 | 18:10.62 | 3:25.43 | 81812 | 97229
7 | 21:36.30 | 5:57.20 | 97230 | 124024
8 | 27:33.50 | 2:54.05 | 124025 | 137079
9 | 30:27.55 | 4:15.15 | 137080 | 156219
10 | 34:42.70 | 4:14.12 | 156220 | 175281
11 | 38:57.07 | 4:01.40 | 175282 | 193396
12 | 42:58.47 | 3:59.70 | 193397 | 211391
13 | 46:58.42 | 3:20.08 | 211392 | 226399
14 | 50:18.50 | 5:33.02 | 226400 | 251376


Range status and errors

Selected range

Filename C:\MUSIC\CD Rips_J\free\Free - All Right Now (The Best Of Free).wav

Peak level 100.0 %
Extraction speed 8.6 X
Range quality 100.0 %
Test CRC DA986ECB
Copy CRC DA986ECB
Copy OK

No errors occurred


AccurateRip summary

Track 1 accurately ripped (confidence 33) [C70EEBC6] (AR v2)
Track 2 accurately ripped (confidence 33) [6B785807] (AR v2)
Track 3 accurately ripped (confidence 33) [F3831E7E] (AR v2)
Track 4 accurately ripped (confidence 33) [F30AD086] (AR v2)
Track 5 accurately ripped (confidence 31) [3AD784E5] (AR v2)
Track 6 accurately ripped (confidence 32) [C4617AD6] (AR v2)
Track 7 accurately ripped (confidence 32) [2E2733D8] (AR v2)
Track 8 accurately ripped (confidence 32) [03D4E7C1] (AR v2)
Track 9 accurately ripped (confidence 32) [53D80235] (AR v2)
Track 10 accurately ripped (confidence 32) [AC376FCB] (AR v2)
Track 11 accurately ripped (confidence 33) [993F2A24] (AR v2)
Track 12 accurately ripped (confidence 32) [A4EB7C24] (AR v2)
Track 13 accurately ripped (confidence 32) [DD1F89D4] (AR v2)
Track 14 accurately ripped (confidence 31) [813061A2] (AR v2)

All tracks accurately ripped

End of status report

==== Log checksum 16B0B38DFB427AE4643CA3F40724F4B8126F99CD028167E32024091D095F19DB ====

foobar2000 1.3.16 / Dynamic Range Meter 1.1.1
log date: 2018-02-14 23:23:25

––––––––––––––––––––––––––––––––––––––––
Analyzed: Free / All Right Now (The Best Of Free)
––––––––––––––––––––––––––––––––––––––––

DR Peak RMS Duration Track
––––––––––––––––––––––––––––––––––––––––
DR12 -0.64 dB -15.01 dB 3:36 01-Wishing Well
DR12 -0.97 dB -15.47 dB 4:15 02-All Right Now
DR12 -1.15 dB -14.69 dB 2:35 03-Little Bit Of love
DR13 -0.18 dB -17.46 dB 4:29 04-Come Together In The Morning
DR12 -1.13 dB -15.22 dB 3:15 05-The Stealer
DR13 0.00 dB -15.47 dB 3:26 06-Sail On
DR13 -0.59 dB -16.01 dB 5:57 07-Mr. Big
DR12 -1.55 dB -15.68 dB 2:54 08-My Brother Jake
DR11 -0.36 dB -14.19 dB 4:15 09-The Hunter
DR13 -1.20 dB -17.18 dB 4:14 10-Be My Friend
DR13 -1.13 dB -15.68 dB 4:02 11-Travellin' In Style
DR13 -0.70 dB -15.23 dB 4:00 12-Fire And Water
DR12 0.00 dB -13.99 dB 3:20 13-Travelling Man
DR12 -2.14 dB -18.88 dB 5:33 14-Don't Say You Love Me
––––––––––––––––––––––––––––––––––––––––

Number of tracks: 14
Official DR value: DR12

Samplerate: 44100 Hz
Channels: 2
Bits per sample: 16
Bitrate: 818 kbps
Codec: FLAC
================================================================================

[CUETools log; Date: 14.02.2018 23:23:16; Version: 2.1.5]
Pregap length 00:00:32.
[CTDB TOCID: sRn_5gtdMANgZ2lsQmfYSEyo8hU-] found.
Track | CTDB Status
1 | (60/60) Accurately ripped
2 | (59/60) Accurately ripped
3 | (60/60) Accurately ripped
4 | (60/60) Accurately ripped
5 | (60/60) Accurately ripped
6 | (60/60) Accurately ripped
7 | (60/60) Accurately ripped
8 | (60/60) Accurately ripped
9 | (59/60) Accurately ripped
10 | (60/60) Accurately ripped
11 | (59/60) Accurately ripped
12 | (60/60) Accurately ripped
13 | (60/60) Accurately ripped
14 | (59/60) Accurately ripped
[AccurateRip ID: 001bc54f-012a72d4-c70d170e] found.
Track [ CRC | V2 ] Status
01 [3906fd3c|c70eebc6] (32+33/65) Accurately ripped
02 [a5071457|6b785807] (33+33/66) Accurately ripped
03 [7dbad619|f3831e7e] (33+33/66) Accurately ripped
04 [2f735e5b|f30ad086] (32+33/65) Accurately ripped
05 [e8f7f7ba|3ad784e5] (33+31/64) Accurately ripped
06 [3ff45bc9|c4617ad6] (33+32/65) Accurately ripped
07 [0bb5adbc|2e2733d8] (33+32/65) Accurately ripped
08 [9ae1d184|03d4e7c1] (35+32/67) Accurately ripped
09 [98ec993e|53d80235] (33+32/65) Accurately ripped
10 [5ef1db27|ac376fcb] (33+32/65) Accurately ripped
11 [e48f0056|993f2a24] (31+33/64) Accurately ripped
12 [957352d8|a4eb7c24] (33+32/65) Accurately ripped
13 [366e048a|dd1f89d4] (33+32/65) Accurately ripped
14 [0f52cd13|813061a2] (32+31/63) Accurately ripped

Track Peak [ CRC32 ] [W/O NULL] [ LOG ]
– 100,0 [DA986ECB] [EF0719DE] CRC32
01 92,9 [40E761F8] [D44D9283]
02 89,4 [7713D150] [6D4DD6B3]
03 87,5 [BEE3D35A] [6FE2E206]
04 97,9 [E373BD34] [0BE05588]
05 87,8 [94B246F7] [5087D220]
06 99,9 [FBD8EFD1] [8A83ABD1]
07 93,3 [51AFDF19] [0322C627]
08 83,6 [5BC927A1] [C9B9518A]
09 95,9 [A8733753] [7F8ACDAC]
10 87,1 [A17A258D] [CA5E4BB4]
11 87,8 [5AE8C8ED] [92AA1CF4]
12 92,2 [337F6CD7] [9EE12E7D]
13 100,0 [01735A9F] [8CACFC5C]
14 78,1 [6DE4C1FE] [F03327B3]

Free - The Best Of Free: All Right Now (1991)

All thanks go to Juergen

>>> My Blog <<<

Download from icerbox.com: