Subcategories

Freiburger Barockorchester - J.S. Bach: Violin Concertos (2013)

Posted By: tirexiss
Freiburger Barockorchester - J.S. Bach: Violin Concertos (2013)

Freiburger Barockorchester - J.S. Bach: Violin Concertos (2013)
EAC | FLAC (image+.cue, log) | Covers Included | 01:01:28 | 403 MB
Genre: Classical | Label: Harmonia Mundi | Catalog: HMC 902145

Recordings of Bach's violin concertos are not in short supply, but this one, nicely recorded at a small hall in the home city of the Freiburg Baroque Orchestra, is unusually satisfying. It does not exactly break new ground, but it improves on several existing ideas and puts them together into a nifty package. First of all is the program itself. The Freiburgers and their leader/violinists, Petra Müllejans and Gottfried von der Goltz (joined here by Anna-Katharina Schreiber), offer by way of conclusion the Concerto for three violins and orchestra, BWV 1064R, a lost work reconstructed from a later version for harpsichord. This isn't terribly often recorded, and it makes a rousing finale to the lively readings that have come before. The soloists have a distinctive ensemble feel, seeming by way of numerous small details of phrasing to react to one another and to the orchestra with uncommon individuality. The orchestra itself plays period instruments, and it has a nice combination of gutsiness (so to speak) and sheen. Harmonia Mundi's engineering at Freiburg's Paulussaal captures all this in faithful detail, adding one more item to a long list of reasons to choose this release.

Freiburger Barockorchester - J.S. Bach: Violin Concertos (2013)

Track List:

Bach, J S: Concerto for Two Violins in D minor, BWV1043 15:35
01. I. Vivace 3:35
02. II. Largo ma non tanto 7:20
03. III. Allegro 4:40
Bach, J S: Violin Concerto BWV 1042 in E Major 16:19
04. I. Allegro 7:33
05. II. Adagio 6:08
06. III. Allegro assai 2:38
Bach, J S: Violin Concerto No. 1 in A minor, BWV1041 13:36
07. I. Allegro 3:50
08. II. Andante 6:11
09. III. Allegro assai 3:35
Bach, J S: Concerto for 3 violins, strings & continuo in D major (reconstruction), BWV 1064R 15:58
10. I. Allegro 6:05
11. II. Adagio 5:40
12. III. Allegro 4:13

Performers:
Petra Müllejans (violin)
Gottfried von der Goltz (violin)
Katherine Schreiber (violin)
Freiburger Barockorchester

Exact Audio Copy V1.0 beta 4 from 7. December 2014

EAC extraction logfile from 26. February 2015, 21:40

Freiburger Barockorchester / J.S.Bach - Violin Concertos - Freiburger Barockorchester

Used drive : PLDS DVD-RW DA8A5SH Adapter: 1 ID: 0

Read mode : Secure
Utilize accurate stream : Yes
Defeat audio cache : Yes
Make use of C2 pointers : Yes

Read offset correction : 6
Overread into Lead-In and Lead-Out : No
Fill up missing offset samples with silence : Yes
Delete leading and trailing silent blocks : No
Null samples used in CRC calculations : Yes
Used interface : Native Win32 interface for Win NT & 2000

Used output format : User Defined Encoder
Selected bitrate : 896 kBit/s
Quality : High
Add ID3 tag : No
Command line compressor : J:\EAC\Exact Audio Copy\Flac\flac.exe
Additional command line options : -8 -V -T "TITLE=%title%" -T "ARTIST=%artist%" -T "ALBUMARTIST=%albumartist%" -T "ALBUM=%albumtitle%" -T "DATE=%year%" -T "TRACKNUMBER=%tracknr%" -T "TRACKTOTAL=%numtracks%" -T "GENRE=%genre%" -T "COMMENT=%comment%" -T "PERFORMER=%albuminterpret%" -T "COMPOSER=%composer%" %source% -o %dest%


TOC of the extracted CD

Track | Start | Length | Start sector | End sector
––––––––––––––––––––––––––––-
1 | 0:00.00 | 3:35.57 | 0 | 16181
2 | 3:35.57 | 7:20.36 | 16182 | 49217
3 | 10:56.18 | 4:40.12 | 49218 | 70229
4 | 15:36.30 | 7:33.38 | 70230 | 104242
5 | 23:09.68 | 6:08.62 | 104243 | 131904
6 | 29:18.55 | 2:38.36 | 131905 | 143790
7 | 31:57.16 | 3:50.03 | 143791 | 161043
8 | 35:47.19 | 6:11.63 | 161044 | 188931
9 | 41:59.07 | 3:35.27 | 188932 | 205083
10 | 45:34.34 | 6:05.27 | 205084 | 232485
11 | 51:39.61 | 5:40.01 | 232486 | 257986
12 | 57:19.62 | 4:13.56 | 257987 | 277017


Range status and errors

Selected range

Filename K:\Ripped\[7628] J.S.Bach – Violin Concertos – Freiburger Barockorchester\J.S.Bach - Violin Concertos - Freiburger Barockorchester.wav

Peak level 96.2 %
Extraction speed 2.8 X
Range quality 100.0 %
Test CRC A520BE3B
Copy CRC A520BE3B
Copy OK

No errors occurred


AccurateRip summary

Track 1 accurately ripped (confidence 32) [4FA8004B] (AR v2)
Track 2 accurately ripped (confidence 33) [AAE2D357] (AR v2)
Track 3 accurately ripped (confidence 33) [3AC31021] (AR v2)
Track 4 accurately ripped (confidence 33) [8248A39D] (AR v2)
Track 5 accurately ripped (confidence 33) [52074C52] (AR v2)
Track 6 accurately ripped (confidence 33) [F5233DFE] (AR v2)
Track 7 accurately ripped (confidence 33) [A169E732] (AR v2)
Track 8 accurately ripped (confidence 33) [D883E8B2] (AR v2)
Track 9 accurately ripped (confidence 33) [674511F2] (AR v2)
Track 10 accurately ripped (confidence 33) [89DB8F8D] (AR v2)
Track 11 accurately ripped (confidence 33) [9563A29A] (AR v2)
Track 12 accurately ripped (confidence 32) [BCCDBDC9] (AR v2)

All tracks accurately ripped

End of status report

==== Log checksum C8222D2F342B10DB29031BFDDD3274D62E209464CA399E40D70FCA0D1EDF7BAF ====

Thanks to the Original ripper (unknown)!

Welcome to my blog!

Download: