Subcategories

Friedrich Gulda - The Gulda Mozart Tapes: 10 Sonatas And A Fantasy (2006)

Posted By: tirexiss
Friedrich Gulda - The Gulda Mozart Tapes: 10 Sonatas And A Fantasy (2006)

Friedrich Gulda - The Gulda Mozart Tapes: 10 Sonatas And A Fantasy (2006)
EAC | FLAC (image+.cue, log) | Digital Booklet | 03:32:51 | 1,05 Gb
Genre: Classical | Label: Deutsche Grammophon | Catalog: 00289 477 6130

Classical and jazz pianist and composer, Friedrich Gulda was one of Austria's premiere pianists. Born in Vienna in 1930, Gulda started piano lessons at the age of seven. When he was 12, he enrolled in the Vienna Music Academy, and four years later received first place in the Geneva International Music Festival. In 1949, Gulda toured Europe and South America, earning international acclaim for his treatments of Bach, Mozart, and Beethoven, and the following year he successfully debuted at Carnegie Hall. Gulda became more involved in jazz from 1951 on, when he improvised with Dizzy Gillespie following a performance with the Chicago Symphony. Five years later, Gulda played his first American jazz concert at Birdland (N.Y.C.), followed by a performance at the Newport Jazz Festival. After this, Gulda formed the Eurojazz Orchestra, a jazz combo and big band which drew from both jazz and classical compositions. In 1966, ten years after his Birdland appearance, Gulda organized a modern jazz competition in his native city. He was awarded the Vienna Academy's Beethoven Ring in 1970, but later returned it to protest what he regarded as a constricting educational system. This only reinforced the public's perception of Gulda as an eccentric. This reputation was not helped when he abruptly called off major performances more than once. A 1988 incident occurred in reaction to objections to his program for a Salzburg music festival that included jazz musician Joe Zawinul; he made another last minute cancellation by faking his own death with a phony obituary only days before a scheduled performance of Mozart. On January 27, 2000, Friedrich Gulda died of an apparent heart attack in Vienna, the city of his birth. – Joslyn Layne

Friedrich Gulda - The Gulda Mozart Tapes: 10 Sonatas And A Fantasy (2006)

Track List:

CD 1:
Piano Sonata No.10 in C major, K.330
Piano Sonata No.12 in F, K.332
Piano Sonata No.13 in B flat, K.333

Exact Audio Copy V0.99 prebeta 3 from 28. July 2007

EAC extraction logfile from 28. August 2007, 4:11

Friedrich Gulda / The Gulda Mozart tapes - CD1

Used drive : PIONEER DVD-RW DVR-K06 Adapter: 0 ID: 1

Read mode : Secure
Utilize accurate stream : Yes
Defeat audio cache : No
Make use of C2 pointers : No

Read offset correction : 48
Overread into Lead-In and Lead-Out : Yes
Fill up missing offset samples with silence : Yes
Delete leading and trailing silent blocks : No
Null samples used in CRC calculations : Yes
Used interface : Native Win32 interface for Win NT & 2000

Used output format : User Defined Encoder
Selected bitrate : 1024 kBit/s
Quality : High
Add ID3 tag : No
Command line compressor : C:\Program Files\Exact Audio Copy\FLAC\FLAC.EXE
Additional command line options : -6 -V -T "ARTIST=%a" -T "TITLE=%t" -T "ALBUM=%g" -T "DATE=%y" -T "TRACKNUMBER=%n" -T "GENRE=%m" -T "COMMENT=%e" %s -o %d


TOC of the extracted CD

Track | Start | Length | Start sector | End sector
––––––––––––––––––––––––––––-
1 | 0:00.00 | 9:22.69 | 0 | 42218
2 | 9:22.69 | 7:48.15 | 42219 | 77333
3 | 17:11.09 | 8:45.44 | 77334 | 116752
4 | 25:56.53 | 9:25.35 | 116753 | 159162
5 | 35:22.13 | 5:07.43 | 159163 | 182230
6 | 40:29.56 | 9:11.06 | 182231 | 223561
7 | 49:40.62 | 10:46.32 | 223562 | 272043
8 | 60:27.19 | 11:09.46 | 272044 | 322264
9 | 71:36.65 | 6:27.50 | 322265 | 351339


Range status and errors

Selected range

Filename C:\Documents and Settings\The Gulda Mozart tapes - CD1.wav

Peak level 98.8 %
Range quality 100.0 %
Copy CRC B4533ACF
Copy OK

No errors occurred

End of status report

[CUETools log; Date: 12.02.2018 17:58:10; Version: 2.1.5]
[CTDB TOCID: 9_QG4KKaD.hF0nCGwdKM50Q6zIg-] found.
Track | CTDB Status
1 | (74/75) Accurately ripped
2 | (74/75) Accurately ripped
3 | (75/75) Accurately ripped
4 | (71/75) Accurately ripped
5 | (72/75) Accurately ripped
6 | (74/75) Accurately ripped
7 | (74/75) Accurately ripped
8 | (72/75) Accurately ripped
9 | (69/75) Accurately ripped
[AccurateRip ID: 001aa7df-00c3bc4d-7e124c09] found.
Track [ CRC | V2 ] Status
01 [55d9b61e|8bffbb64] (30+55/85) Accurately ripped
02 [f377b7b8|acfe8df4] (28+54/84) Accurately ripped
03 [78ba34e7|fc002953] (30+56/86) Accurately ripped
04 [a49664ab|7f4e772d] (31+54/85) Accurately ripped
05 [0af93bec|5643e413] (30+55/85) Accurately ripped
06 [ce52b513|83d729f3] (31+53/84) Accurately ripped
07 [754b1e25|541d7b80] (30+56/86) Accurately ripped
08 [19df748a|40189f36] (30+56/86) Accurately ripped
09 [ec7712f3|04e31504] (30+54/84) Accurately ripped

Track Peak [ CRC32 ] [W/O NULL] [ LOG ]
– 98,8 [B4533ACF] [843C8650] CRC32
01 98,8 [85CA110A] [3B3FCD28]
02 98,8 [4FC5C53C] [E0C83949]
03 98,8 [0AF08F3A] [D98B3391]
04 98,8 [8E91FB5E] [9B804FB2]
05 98,8 [4F3DD6E2] [38997AA9]
06 98,8 [5B421BEC] [6D2AE03E]
07 98,8 [8B411189] [5934573B]
08 98,8 [656D4D1A] [3AE93B07]
09 98,8 [013876C0] [D88520EF]

CD 2:
Piano Sonata No.1 in C, K.279
Piano Sonata No.2 in F, K.280
Piano Sonata No.3 in B flat, K.281
Piano Sonata No.4 in E flat, K.282

Exact Audio Copy V0.99 prebeta 3 from 28. July 2007

EAC extraction logfile from 28. August 2007, 3:33

Friedrich Gulda / The Gulda Mozart tapes - CD2

Used drive : PIONEER DVD-RW DVR-K06 Adapter: 0 ID: 1

Read mode : Secure
Utilize accurate stream : Yes
Defeat audio cache : No
Make use of C2 pointers : No

Read offset correction : 48
Overread into Lead-In and Lead-Out : Yes
Fill up missing offset samples with silence : Yes
Delete leading and trailing silent blocks : No
Null samples used in CRC calculations : Yes
Used interface : Native Win32 interface for Win NT & 2000

Used output format : User Defined Encoder
Selected bitrate : 1024 kBit/s
Quality : High
Add ID3 tag : No
Command line compressor : C:\Program Files\Exact Audio Copy\FLAC\FLAC.EXE
Additional command line options : -6 -V -T "ARTIST=%a" -T "TITLE=%t" -T "ALBUM=%g" -T "DATE=%y" -T "TRACKNUMBER=%n" -T "GENRE=%m" -T "COMMENT=%e" %s -o %d


TOC of the extracted CD

Track | Start | Length | Start sector | End sector
––––––––––––––––––––––––––––-
1 | 0:00.00 | 5:59.70 | 0 | 26994
2 | 5:59.70 | 9:18.10 | 26995 | 68854
3 | 15:18.05 | 4:23.58 | 68855 | 88637
4 | 19:41.63 | 5:55.46 | 88638 | 115308
5 | 25:37.34 | 8:09.58 | 115309 | 152041
6 | 33:47.17 | 3:52.71 | 152042 | 169512
7 | 37:40.13 | 6:31.66 | 169513 | 198903
8 | 44:12.04 | 7:18.00 | 198904 | 231753
9 | 51:30.04 | 3:50.12 | 231754 | 249015
10 | 55:20.16 | 8:00.36 | 249016 | 285051
11 | 63:20.52 | 4:33.68 | 285052 | 305594
12 | 67:54.45 | 2:53.27 | 305595 | 318596


Range status and errors

Selected range

Filename C:\Documents and Settings\The Gulda Mozart tapes - CD2.wav

Peak level 98.8 %
Range quality 100.0 %
Copy CRC 547224B0
Copy OK

No errors occurred

End of status report

––––––––––––––––––––––––––––––

Exact Audio Copy V0.99 prebeta 3 from 28. July 2007

EAC extraction logfile from 28. August 2007, 3:33

Friedrich Gulda / The Gulda Mozart tapes - CD2

Used drive : PIONEER DVD-RW DVR-K06 Adapter: 0 ID: 1

Read mode : Secure
Utilize accurate stream : Yes
Defeat audio cache : No
Make use of C2 pointers : No

Read offset correction : 48
Overread into Lead-In and Lead-Out : Yes
Fill up missing offset samples with silence : Yes
Delete leading and trailing silent blocks : No
Null samples used in CRC calculations : Yes
Used interface : Native Win32 interface for Win NT & 2000

Used output format : User Defined Encoder
Selected bitrate : 1024 kBit/s
Quality : High
Add ID3 tag : No
Command line compressor : C:\Program Files\Exact Audio Copy\FLAC\FLAC.EXE
Additional command line options : -6 -V -T "ARTIST=%a" -T "TITLE=%t" -T "ALBUM=%g" -T "DATE=%y" -T "TRACKNUMBER=%n" -T "GENRE=%m" -T "COMMENT=%e" %s -o %d


TOC of the extracted CD

Track | Start | Length | Start sector | End sector
––––––––––––––––––––––––––––-
1 | 0:00.00 | 5:59.70 | 0 | 26994
2 | 5:59.70 | 9:18.10 | 26995 | 68854
3 | 15:18.05 | 4:23.58 | 68855 | 88637
4 | 19:41.63 | 5:55.46 | 88638 | 115308
5 | 25:37.34 | 8:09.58 | 115309 | 152041
6 | 33:47.17 | 3:52.71 | 152042 | 169512
7 | 37:40.13 | 6:31.66 | 169513 | 198903
8 | 44:12.04 | 7:18.00 | 198904 | 231753
9 | 51:30.04 | 3:50.12 | 231754 | 249015
10 | 55:20.16 | 8:00.36 | 249016 | 285051
11 | 63:20.52 | 4:33.68 | 285052 | 305594
12 | 67:54.45 | 2:53.27 | 305595 | 318596


Range status and errors

Selected range

Filename C:\Documents and Settings\The Gulda Mozart tapes - CD2.wav

Peak level 98.8 %
Range quality 100.0 %
Copy CRC 547224B0
Copy OK

No errors occurred

End of status report

[CUETools log; Date: 12.02.2018 17:58:30; Version: 2.1.5]
[CTDB TOCID: VncoGdC0Yk7J8tn40BtFN0L36EU-] found.
Track | CTDB Status
1 | (72/73) Accurately ripped
2 | (72/73) Accurately ripped
3 | (72/73) Accurately ripped
4 | (73/73) Accurately ripped
5 | (73/73) Accurately ripped
6 | (73/73) Accurately ripped
7 | (72/73) Accurately ripped
8 | (71/73) Accurately ripped
9 | (73/73) Accurately ripped
10 | (72/73) Accurately ripped
11 | (71/73) Accurately ripped
12 | (71/73) Accurately ripped
[AccurateRip ID: 0021b9de-01374fe3-9610970c] found.
Track [ CRC | V2 ] Status
01 [2b8e30b3|23ef17e2] (26+55/81) Accurately ripped
02 [a535e67c|9a312732] (26+56/82) Accurately ripped
03 [72ac361c|c8bca0c7] (27+56/83) Accurately ripped
04 [31896da8|c5221440] (26+56/82) Accurately ripped
05 [ba3e37c7|ab39ba7a] (26+56/82) Accurately ripped
06 [a02f4104|55ce5303] (26+56/82) Accurately ripped
07 [0f464801|8ee9326c] (25+56/81) Accurately ripped
08 [973ff363|19ee194d] (26+56/82) Accurately ripped
09 [6cc87a6e|01ccd11b] (27+56/83) Accurately ripped
10 [d667e2b8|eb48b3a5] (25+56/81) Accurately ripped
11 [258fa044|7cfd054e] (25+55/80) Accurately ripped
12 [58cb8b66|78c94e47] (26+55/81) Accurately ripped

Track Peak [ CRC32 ] [W/O NULL] [ LOG ]
– 98,8 [547224B0] [217709CC]
01 98,8 [DBD51878] [97142425] [547224B0]
02 90,1 [2AE1AB71] [4F41B1BF] [547224B0]
03 98,8 [10420D0D] [450C41F5]
04 98,8 [E7E85E7C] [0B3AB6E9]
05 67,1 [E90DFA79] [54B72303]
06 98,8 [7A53425E] [3F6FCCA9]
07 98,8 [7C8A7F2B] [DA49E126]
08 98,8 [10E7EFF3] [BA292087]
09 98,8 [BC5C4757] [F13C28D7]
10 98,8 [4E75763F] [7C35F1D3]
11 98,8 [5E7F6DEC] [75F6F199]
12 98,8 [FC0795B1] [59F334D0]

CD 3:
Piano Sonata No.5 in G, K.283
Fantasia in C minor, K.475
Piano Sonata No.15 in C, K.545 "Facile"
Piano Sonata No.9 in D, K.311

Exact Audio Copy V0.99 prebeta 3 from 28. July 2007

EAC extraction logfile from 28. August 2007, 2:22

Friedrich Gulda / the GULDA MOZART tapes - CD3

Used drive : PIONEER DVD-RW DVR-K06 Adapter: 0 ID: 1

Read mode : Secure
Utilize accurate stream : Yes
Defeat audio cache : No
Make use of C2 pointers : No

Read offset correction : 48
Overread into Lead-In and Lead-Out : Yes
Fill up missing offset samples with silence : Yes
Delete leading and trailing silent blocks : No
Null samples used in CRC calculations : Yes
Used interface : Native Win32 interface for Win NT & 2000

Used output format : User Defined Encoder
Selected bitrate : 1024 kBit/s
Quality : High
Add ID3 tag : No
Command line compressor : C:\Program Files\Exact Audio Copy\FLAC\FLAC.EXE
Additional command line options : -6 -V -T "ARTIST=%a" -T "TITLE=%t" -T "ALBUM=%g" -T "DATE=%y" -T "TRACKNUMBER=%n" -T "GENRE=%m" -T "COMMENT=%e" %s -o %d


TOC of the extracted CD

Track | Start | Length | Start sector | End sector
––––––––––––––––––––––––––––-
1 | 0:00.00 | 5:46.43 | 0 | 25992
2 | 5:46.43 | 7:32.12 | 25993 | 59904
3 | 13:18.55 | 5:11.57 | 59905 | 83286
4 | 18:30.37 | 12:42.18 | 83287 | 140454
5 | 31:12.55 | 4:41.36 | 140455 | 161565
6 | 35:54.16 | 6:53.03 | 161566 | 192543
7 | 42:47.19 | 1:57.53 | 192544 | 201371
8 | 44:44.72 | 6:42.60 | 201372 | 231581
9 | 51:27.57 | 6:19.45 | 231582 | 260051
10 | 57:47.27 | 6:11.54 | 260052 | 287930


Range status and errors

Selected range

Filename C:\Documents and Settings\The Gulda Mozart tapes - CD3.wav

Peak level 98.8 %
Range quality 100.0 %
Copy CRC EF7D74BA
Copy OK

No errors occurred

End of status report

––––––––––––––––––––––––––––––

Exact Audio Copy V0.99 prebeta 3 from 28. July 2007

EAC extraction logfile from 28. August 2007, 2:22

Friedrich Gulda / the GULDA MOZART tapes - CD3

Used drive : PIONEER DVD-RW DVR-K06 Adapter: 0 ID: 1

Read mode : Secure
Utilize accurate stream : Yes
Defeat audio cache : No
Make use of C2 pointers : No

Read offset correction : 48
Overread into Lead-In and Lead-Out : Yes
Fill up missing offset samples with silence : Yes
Delete leading and trailing silent blocks : No
Null samples used in CRC calculations : Yes
Used interface : Native Win32 interface for Win NT & 2000

Used output format : User Defined Encoder
Selected bitrate : 1024 kBit/s
Quality : High
Add ID3 tag : No
Command line compressor : C:\Program Files\Exact Audio Copy\FLAC\FLAC.EXE
Additional command line options : -6 -V -T "ARTIST=%a" -T "TITLE=%t" -T "ALBUM=%g" -T "DATE=%y" -T "TRACKNUMBER=%n" -T "GENRE=%m" -T "COMMENT=%e" %s -o %d


TOC of the extracted CD

Track | Start | Length | Start sector | End sector
––––––––––––––––––––––––––––-
1 | 0:00.00 | 5:46.43 | 0 | 25992
2 | 5:46.43 | 7:32.12 | 25993 | 59904
3 | 13:18.55 | 5:11.57 | 59905 | 83286
4 | 18:30.37 | 12:42.18 | 83287 | 140454
5 | 31:12.55 | 4:41.36 | 140455 | 161565
6 | 35:54.16 | 6:53.03 | 161566 | 192543
7 | 42:47.19 | 1:57.53 | 192544 | 201371
8 | 44:44.72 | 6:42.60 | 201372 | 231581
9 | 51:27.57 | 6:19.45 | 231582 | 260051
10 | 57:47.27 | 6:11.54 | 260052 | 287930


Range status and errors

Selected range

Filename C:\Documents and Settings\The Gulda Mozart tapes - CD3.wav

Peak level 98.8 %
Range quality 100.0 %
Copy CRC EF7D74BA
Copy OK

No errors occurred

End of status report

[CUETools log; Date: 12.02.2018 17:58:47; Version: 2.1.5]
[CTDB TOCID: A36z.8ijKfozZZL_HI1i0TlBRr0-] found.
Track | CTDB Status
1 | (72/73) Accurately ripped
2 | (73/73) Accurately ripped
3 | (73/73) Accurately ripped
4 | (73/73) Accurately ripped
5 | (73/73) Accurately ripped
6 | (73/73) Accurately ripped
7 | (72/73) Accurately ripped
8 | (73/73) Accurately ripped
9 | (73/73) Accurately ripped
10 | (70/73) Accurately ripped
[AccurateRip ID: 0019188f-00c71608-960eff0a] found.
Track [ CRC | V2 ] Status
01 [a5aa9aeb|bf2160cc] (28+55/83) Accurately ripped
02 [841ca7cc|093aca26] (28+56/84) Accurately ripped
03 [fa50721a|bd96dd27] (27+56/83) Accurately ripped
04 [6488bead|ccb7cc90] (28+56/84) Accurately ripped
05 [51fdce8f|1ad4e0fa] (28+55/83) Accurately ripped
06 [93df2a1c|1f3cf263] (27+56/83) Accurately ripped
07 [4dc71e97|8ceb1338] (28+56/84) Accurately ripped
08 [917b6af2|f47bacde] (28+55/83) Accurately ripped
09 [ae62ec95|28d6a578] (28+56/84) Accurately ripped
10 [cc07a1ac|1071897f] (26+53/79) Accurately ripped

Track Peak [ CRC32 ] [W/O NULL] [ LOG ]
– 98,8 [EF7D74BA] [3497C80D]
01 98,8 [58B05771] [3E16F016] [EF7D74BA]
02 85,1 [03A91992] [5A886344] [EF7D74BA]
03 98,8 [B78629F4] [CF941DA9]
04 94,1 [D7091ED9] [34B0F0A3]
05 98,8 [03B9A3AE] [28EE3F52]
06 87,2 [3ABA6725] [5FAED3C0]
07 98,8 [21EC97BA] [9F9D9BA9]
08 96,2 [0AE5A112] [F275CBF1]
09 98,7 [65B06933] [9E4093CC]
10 98,5 [0CF7782D] [3EA52AB6]

Thanks to the Original ripper (unknown)!

Download: