Subcategories

Fritz Naf, Die Basler Madrigalisten - Alessandro Scarlatti: Passio Secundum Joannem (2010)

Posted By: ArlegZ
Fritz Naf, Die Basler Madrigalisten - Alessandro Scarlatti: Passio Secundum Joannem (2010)

Fritz Näf, Die Basler Madrigalisten - Alessandro Scarlatti: Passio Secundum Joannem (2010)
EAC | FLAC | Image (Cue & Log) ~ 223 Mb | Total time: 54:36 | Scans included
Classical | Label: Deutsche Harmonia Mundi | # 88697 57617 2 | Recorded: 1981

Alessandro Scarlatti’s St John Passion was the first Passion setting written in seventeenth-century Italy. Scarlatti treats the role of the Evangelist (composed in the mezzo-soprano register) in highly unusual fashion, giving his narrative numerous emotional passages. The Voice of Christ (bass) is invariably haloed by a string accompaniment.

Performer:
René Jacobs (Evangelist)
Kurt Widmer (Christus)
Graham Pushee (Pilate)
Schola Cantorum Basiliensis
Die Basler Madrigalisten
Direction - Fritz Näf

Track List:
01. Passio Domini Nostri Lesu Christi
02. In Illo Tempore Egressus Est
03. Lesus Itaque Sciens Omnia
04. Cors Ergo Et Tribunus
05. Sequebatur Autem Lesum Simon Petrus
06. Pontifex Ergo Interrogavit Lesum
07. Erat Autem Simon Petrus
08. Adducunt Ergo Lesum
09. Introivit Ergo Iterum In Praetorium Pilatus
10. Et, Cum Hoc Dixisset, Iterum Exivit Ad Ludaeos
11. Tunc Ergo Apprehendit Pilatus Lesum
12. Et Exinde Quaerebat Pilatus
13. Susceperunt Autem Lesum
14. Stabant Autem Iuxta Crucem
15. Postea Sciens Lesus
16. Ludaei Ergo


Exact Audio Copy V1.0 beta 3 from 29. August 2011

EAC extraction logfile from 18. September 2017, 15:46

Fritz Näf, Die Basler Madrigalisten / A.Scarlatti - Passio Secundum Ioannem

Used drive : HL-DT-STDVDRAM GH24NS95 Adapter: 0 ID: 0

Read mode : Secure
Utilize accurate stream : Yes
Defeat audio cache : Yes
Make use of C2 pointers : No

Read offset correction : 6
Overread into Lead-In and Lead-Out : No
Fill up missing offset samples with silence : Yes
Delete leading and trailing silent blocks : No
Null samples used in CRC calculations : Yes
Used interface : Native Win32 interface for Win NT & 2000

Used output format : User Defined Encoder
Selected bitrate : 128 kBit/s
Quality : High
Add ID3 tag : No
Command line compressor : C:\Program Files\Exact Audio Copy\Flac\flac.exe
Additional command line options : -V -8 -T "Date=%year%" -T "Genre=%genre%" %source%


TOC of the extracted CD

Track | Start | Length | Start sector | End sector
––––––––––––––––––––––––––––-
1 | 0:00.33 | 2:40.20 | 33 | 12052
2 | 2:40.53 | 1:08.60 | 12053 | 17212
3 | 3:49.38 | 5:26.37 | 17213 | 41699
4 | 9:16.00 | 1:26.23 | 41700 | 48172
5 | 10:42.23 | 2:26.22 | 48173 | 59144
6 | 13:08.45 | 3:53.68 | 59145 | 76687
7 | 17:02.38 | 1:43.50 | 76688 | 84462
8 | 18:46.13 | 3:03.10 | 84463 | 98197
9 | 21:49.23 | 5:18.17 | 98198 | 122064
10 | 27:07.40 | 1:23.55 | 122065 | 128344
11 | 28:31.20 | 7:09.50 | 128345 | 160569
12 | 35:40.70 | 3:05.03 | 160570 | 174447
13 | 38:45.73 | 5:29.30 | 174448 | 199152
14 | 44:15.28 | 2:23.67 | 199153 | 209944
15 | 46:39.20 | 3:20.15 | 209945 | 224959
16 | 49:59.35 | 4:36.35 | 224960 | 245694


Range status and errors

Selected range

Filename C:\A.Scarlatti - Passio Secundum Ioannem.wav

Peak level 100.0 %
Extraction speed 1.8 X
Range quality 100.0 %
Test CRC 736E0457
Copy CRC 736E0457
Copy OK

No errors occurred

End of status report

==== Log checksum 15D9A7B7E8630D784764E9F02585A4DA34DBE5EF382FA367991E420B8A7EAE3B ====

Fritz Naf, Die Basler Madrigalisten - Alessandro Scarlatti: Passio Secundum Joannem (2010)