Subcategories

Fruupp: Discography (1973 - 1976)

Posted By: v3122
Fruupp: Discography (1973 - 1976)

John Hackett - Another Life (2015)
EAC | Flac(Image) + Cue + Log & MP3 CBR 320Kbps
Esoteric Antenna, EANT21038 | ~ 297 or 115 Mb | Scans(png) -> 258 Mb
Progressive Rock

One of the hardest-working progressive bands to end up languishing in relative obscurity, Fruupp was begun in 1971 by guitarist Vince McCusker. After a brief musical apprenticeship in London, McCusker returned to Belfast and quickly pulled together a group of largely classically trained musicians; the lineup was unusual in that keyboardist Stephen Houston doubled on the oboe. (The unusual band name was taken from a Lectreset sheet.) The band's resulting sound is not unlike Spring or early Genesis, with primary composers McCusker and Houston acting as foils for each other: Houston's cello, oboe, and violin typically lend dark folk textures beneath McCusker's aggressive guitar parts and Peter Farelly's Celtic-influenced vocals. After two years of gigging, they shopped their demo tape around and were picked up by Pye Records for their Dawn label. Between 1973 and 1975, Fruupp released four albums, the last of which was produced by King Crimson alum Ian McDonald; the band also toured in support of Crimson. Despite playing hundreds of gigs per year throughout the U.K. and Europe during this period, their record sales never quite took off, and the band closed up shop after a final London gig at the Roundhouse in 1976.

by Paul Collins, allmusic
Fruupp: Discography (1973 - 1976)

Fruupp: Discography (1973 - 1976):

Fruupp: Discography (1973 - 1976)

Tracklist CD1 - Future Legends 1973:
2004, Arcangelo ARC-7070

1. Future legends (1:32)
2. Decision (6:29)
3. As day breaks with dawn (5:04)
4. Graveyard epistle (6:20)
5. Lord of the Incubus (6:27)
6. Olde tyme future (5:39)
7. Song for a thought (7:35)
8. Future legends (0:54)

Converted to Image (CUETools 2.1.4)

EAC extraction logfile from 19. September 2008, 16:08 for CD
Fruupp / Future Legends (Japanese Remaster)

Used drive : HL-DT-STDVD-RW GSA-H11N Adapter: 1 ID: 0
Read mode : Secure with NO C2, accurate stream, disable cache
Read offset correction : 667
Overread into Lead-In and Lead-Out : No

Used output format : C:\Users\Pepe\Downloads\Flac\flac-1.1.4-win\bin\flac.exe (User Defined Encoder)
320 kBit/s
Additional command line options : -8 -V -T "artist=%a" -T "title=%t" -T "album=%g" -T "date=%y" -T "tracknumber=%n" -T "genre=%m" %s

Other options :
Fill up missing offset samples with silence : Yes
Delete leading and trailing silent blocks : No
Native Win32 interface for Win NT & 2000


Track 1
Filename C:\Users\Pepe\Documents\Azureus Downloads\Fruupp - 1973 - Future Legends (Japanese Remaster)\01 - Future Legends.wav

Pre-gap length 0:00:02.00

Peak level 91.6 %
Track quality 100.0 %
Test CRC DF52A6C8
Copy CRC DF52A6C8
Copy OK

Track 2
Filename C:\Users\Pepe\Documents\Azureus Downloads\Fruupp - 1973 - Future Legends (Japanese Remaster)\02 - Decision.wav

Peak level 100.0 %
Track quality 100.0 %
Test CRC FD25A90D
Copy CRC FD25A90D
Copy OK

Track 3
Filename C:\Users\Pepe\Documents\Azureus Downloads\Fruupp - 1973 - Future Legends (Japanese Remaster)\03 - As Day Breaks With Dawn.wav

Peak level 100.0 %
Track quality 100.0 %
Test CRC 4622B6B8
Copy CRC 4622B6B8
Copy OK

Track 4
Filename C:\Users\Pepe\Documents\Azureus Downloads\Fruupp - 1973 - Future Legends (Japanese Remaster)\04 - Graveyard Epistle.wav

Peak level 100.0 %
Track quality 99.9 %
Test CRC C4E6B816
Copy CRC C4E6B816
Copy OK

Track 5
Filename C:\Users\Pepe\Documents\Azureus Downloads\Fruupp - 1973 - Future Legends (Japanese Remaster)\05 - Lord Of The Incubus.wav

Peak level 100.0 %
Track quality 100.0 %
Test CRC 3FA71BBA
Copy CRC 3FA71BBA
Copy OK

Track 6
Filename C:\Users\Pepe\Documents\Azureus Downloads\Fruupp - 1973 - Future Legends (Japanese Remaster)\06 - Olde Tyme Future.wav

Peak level 100.0 %
Track quality 100.0 %
Test CRC 6F665190
Copy CRC 6F665190
Copy OK

Track 7
Filename C:\Users\Pepe\Documents\Azureus Downloads\Fruupp - 1973 - Future Legends (Japanese Remaster)\07 - Song For A Thought.wav

Peak level 100.0 %
Track quality 99.9 %
Test CRC 718C8EEB
Copy CRC 718C8EEB
Copy OK

Track 8
Filename C:\Users\Pepe\Documents\Azureus Downloads\Fruupp - 1973 - Future Legends (Japanese Remaster)\08 - Future Legends.wav

Peak level 99.4 %
Track quality 100.0 %
Test CRC 62D513F9
Copy CRC 62D513F9
Copy OK

No errors occured


End of status report


[CUETools log; Date: 03.11.2017 2:09:09; Version: 2.1.5]
[AccurateRip ID: 000c417e-00541a11-73095f08] found.
Track [ CRC | V2 ] Status
01 [d583d803|942d40a3] (2+4/6) Accurately ripped
02 [2e9e6f70|8fca6f1b] (2+4/6) Accurately ripped
03 [00e5c92c|32571ef9] (2+4/6) Accurately ripped
04 [96178a51|fc6107f7] (2+4/6) Accurately ripped
05 [2c3e8335|66bef5a7] (2+4/6) Accurately ripped
06 [abdd876b|a2d458c6] (2+4/6) Accurately ripped
07 [928f2fc8|2652424b] (2+4/6) Accurately ripped
08 [c7541434|7fa9de14] (2+4/6) Accurately ripped

Track Peak [ CRC32 ] [W/O NULL] [ LOG ]
– 100,0 [8CEAAE55] [86706830]
01 91,5 [DF52A6C8] [4317929C] CRC32
02 100,0 [FD25A90D] [2DBDEAC0] CRC32
03 100,0 [4622B6B8] [F23CBB71] CRC32
04 100,0 [C4E6B816] [75BA134E] CRC32
05 100,0 [3FA71BBA] [C2CBE079] CRC32
06 100,0 [6F665190] [BF35AF4C] CRC32
07 100,0 [718C8EEB] [BF6F0652] CRC32
08 99,4 [62D513F9] [C9D1B163] CRC32


Fruupp: Discography (1973 - 1976)

Tracklist CD2 - The Prince Of Heaven's Eyes:
2004, Arcangelo ARC-7072

1. It's all up now (7:23)
2. Prince of darkness (3:50)
3. Jaunting car (2:28)
4. Annie Austere (5:21)
5. Knowing you (2:46)
6. Crystal brook (8:05)
7. Seaward sunset (3:07)
8. The perfect wish (9:56)

Converted to Image (CUETools 2.1.4)

EAC extraction logfile from 19. September 2008, 18:55 for CD
Fruupp / The Prince of Heaven's Eyes

Used drive : HL-DT-STDVD-RW GSA-H11N Adapter: 1 ID: 0
Read mode : Secure with NO C2, accurate stream, disable cache
Read offset correction : 667
Overread into Lead-In and Lead-Out : No

Used output format : C:\Users\Pepe\Downloads\Flac\flac-1.1.4-win\bin\flac.exe (User Defined Encoder)
320 kBit/s
Additional command line options : -8 -V -T "artist=%a" -T "title=%t" -T "album=%g" -T "date=%y" -T "tracknumber=%n" -T "genre=%m" %s

Other options :
Fill up missing offset samples with silence : Yes
Delete leading and trailing silent blocks : No
Native Win32 interface for Win NT & 2000


Track 1
Filename C:\Users\Pepe\Documents\Azureus Downloads\Fruupp - 1974 - The Prince Of Heaven's Eyes (Japanese 2CD Remaster)\01 - It's all up now.wav

Pre-gap length 0:00:02.00

Peak level 100.0 %
Track quality 100.0 %
Test CRC AFF24FF0
Copy CRC AFF24FF0
Copy OK

Track 2
Filename C:\Users\Pepe\Documents\Azureus Downloads\Fruupp - 1974 - The Prince Of Heaven's Eyes (Japanese 2CD Remaster)\02 - Prince of darkness.wav

Peak level 100.0 %
Track quality 100.0 %
Test CRC C1E788EE
Copy CRC C1E788EE
Copy OK

Track 3
Filename C:\Users\Pepe\Documents\Azureus Downloads\Fruupp - 1974 - The Prince Of Heaven's Eyes (Japanese 2CD Remaster)\03 - Jaunting car.wav

Peak level 100.0 %
Track quality 100.0 %
Test CRC A0B20E0B
Copy CRC A0B20E0B
Copy OK

Track 4
Filename C:\Users\Pepe\Documents\Azureus Downloads\Fruupp - 1974 - The Prince Of Heaven's Eyes (Japanese 2CD Remaster)\04 - Annie Austere.wav

Peak level 100.0 %
Track quality 100.0 %
Test CRC 24ECDED8
Copy CRC 24ECDED8
Copy OK

Track 5
Filename C:\Users\Pepe\Documents\Azureus Downloads\Fruupp - 1974 - The Prince Of Heaven's Eyes (Japanese 2CD Remaster)\05 - Knowing you.wav

Peak level 100.0 %
Track quality 99.9 %
Test CRC DF3F5976
Copy CRC DF3F5976
Copy OK

Track 6
Filename C:\Users\Pepe\Documents\Azureus Downloads\Fruupp - 1974 - The Prince Of Heaven's Eyes (Japanese 2CD Remaster)\06 - Crystal brook.wav

Peak level 100.0 %
Track quality 100.0 %
Test CRC B380E337
Copy CRC B380E337
Copy OK

Track 7
Filename C:\Users\Pepe\Documents\Azureus Downloads\Fruupp - 1974 - The Prince Of Heaven's Eyes (Japanese 2CD Remaster)\07 - Seaward sunset.wav

Peak level 99.1 %
Track quality 100.0 %
Test CRC 17E31283
Copy CRC 17E31283
Copy OK

Track 8
Filename C:\Users\Pepe\Documents\Azureus Downloads\Fruupp - 1974 - The Prince Of Heaven's Eyes (Japanese 2CD Remaster)\08 - The perfect wish.wav

Peak level 100.0 %
Track quality 99.9 %
Test CRC 04426AA6
Copy CRC 04426AA6
Copy OK

No errors occured


End of status report


[CUETools log; Date: 03.11.2017 2:16:44; Version: 2.1.5]
[AccurateRip ID: 000c48b5-00519bf9-6a0a1008] found.
Track [ CRC | V2 ] Status
01 [b16ce201|8fdf5fd9] (5+4/9) Accurately ripped
02 [333f73ee|36c9b446] (5+4/9) Accurately ripped
03 [cbec2f2f|35d0b013] (5+4/9) Accurately ripped
04 [d9a1743f|d3cfbee5] (5+4/9) Accurately ripped
05 [aeb9fcfd|4e4599c4] (4+4/8) Accurately ripped
06 [e09161da|a3b76d48] (5+4/9) Accurately ripped
07 [60b99c44|7e2e3502] (4+4/8) Accurately ripped
08 [7bf13913|dc86f61d] (3+4/7) Accurately ripped

Track Peak [ CRC32 ] [W/O NULL] [ LOG ]
– 100,0 [4162714A] [3D117B4C]
01 100,0 [AFF24FF0] [293C69B1] CRC32
02 100,0 [C1E788EE] [4BB00EF8] CRC32
03 100,0 [A0B20E0B] [45F6D14F] CRC32
04 100,0 [24ECDED8] [6B36535E] CRC32
05 100,0 [DF3F5976] [F50DD39B] CRC32
06 100,0 [B380E337] [ACDFF52A] CRC32
07 99,1 [17E31283] [2D6CA01E] CRC32
08 100,0 [04426AA6] [0A608560] CRC32


Tracklist CD3 - The Prince Of Heaven's Eyes (Bonus CD):
2004, Arcangelo ARC-7073

1. Prince Of Heaven (3:38)
2. The Jaunting Car (2:27)

Converted to Image (CUETools 2.1.4)

EAC extraction logfile from 19. September 2008, 19:11 for CD
Fruupp / The Prince Of Heaven's Eyes (Japanese Remaster Bonus Disc)

Used drive : HL-DT-STDVD-RW GSA-H11N Adapter: 1 ID: 0
Read mode : Secure with NO C2, accurate stream, disable cache
Read offset correction : 667
Overread into Lead-In and Lead-Out : No

Used output format : C:\Users\Pepe\Downloads\Flac\flac-1.1.4-win\bin\flac.exe (User Defined Encoder)
320 kBit/s
Additional command line options : -8 -V -T "artist=%a" -T "title=%t" -T "album=%g" -T "date=%y" -T "tracknumber=%n" -T "genre=%m" %s

Other options :
Fill up missing offset samples with silence : Yes
Delete leading and trailing silent blocks : No
Native Win32 interface for Win NT & 2000


Track 1
Filename C:\Users\Pepe\Documents\Azureus Downloads\Fruupp - 1974 - The Prince Of Heaven's Eyes (Japanese 2CD Remaster)\Bonus CD\01 - Prince Of Heaven.wav

Pre-gap length 0:00:02.00

Peak level 100.0 %
Track quality 99.9 %
Test CRC 5F0FCB2A
Copy CRC 5F0FCB2A
Copy OK

Track 2
Filename C:\Users\Pepe\Documents\Azureus Downloads\Fruupp - 1974 - The Prince Of Heaven's Eyes (Japanese 2CD Remaster)\Bonus CD\02 - The Jaunting Car.wav

Peak level 100.0 %
Track quality 99.9 %
Test CRC 92ABCE84
Copy CRC 92ABCE84
Copy OK

No errors occured


End of status report


[CUETools log; Date: 03.11.2017 2:19:12; Version: 2.1.5]
[AccurateRip ID: 0000aacd-0001c09a-0e016d02] found.
Track [ CRC | V2 ] Status
01 [3b62862d|c35df24d] (2+3/5) Accurately ripped
02 [f600f8e6|e6868da2] (2+3/5) Accurately ripped

Track Peak [ CRC32 ] [W/O NULL] [ LOG ]
– 100,0 [AD95FB74] [EEE944B2]
01 100,0 [5F0FCB2A] [761FB68F] CRC32
02 100,0 [92ABCE84] [69DA382C] CRC32


Fruupp: Discography (1973 - 1976)

Tracklist CD4 - Seven Secrets 1974:
2004, Arcangelo ARC-7071

1. Faced with Shekinah (8:23)
2. Wise as wisdom (7:08)
3. White eyes (7:21)
4. Garden lady (9:09)
5. Three spires (5:05)
6. Elizabeth (7:49)
7. The seventh secret (1:09)

Converted to Image (CUETools 2.1.4)

EAC extraction logfile from 19. September 2008, 17:50 for CD
Fruupp / Seven Secrets (Japanese Remaster)

Used drive : HL-DT-STDVD-RW GSA-H11N Adapter: 1 ID: 0
Read mode : Secure with NO C2, accurate stream, disable cache
Read offset correction : 667
Overread into Lead-In and Lead-Out : No

Used output format : C:\Users\Pepe\Downloads\Flac\flac-1.1.4-win\bin\flac.exe (User Defined Encoder)
320 kBit/s
Additional command line options : -8 -V -T "artist=%a" -T "title=%t" -T "album=%g" -T "date=%y" -T "tracknumber=%n" -T "genre=%m" %s

Other options :
Fill up missing offset samples with silence : Yes
Delete leading and trailing silent blocks : No
Native Win32 interface for Win NT & 2000


Track 1
Filename C:\Users\Pepe\Documents\Azureus Downloads\Fruupp - 1974 - Seven Secrets (Japanese Remaster)\01 - Faced With Shekinah.wav

Pre-gap length 0:00:02.00

Peak level 100.0 %
Track quality 100.0 %
Test CRC 96FDE322
Copy CRC 96FDE322
Copy OK

Track 2
Filename C:\Users\Pepe\Documents\Azureus Downloads\Fruupp - 1974 - Seven Secrets (Japanese Remaster)\02 - Wise As Wisdom.wav

Peak level 100.0 %
Track quality 99.9 %
Test CRC DFA878B6
Copy CRC DFA878B6
Copy OK

Track 3
Filename C:\Users\Pepe\Documents\Azureus Downloads\Fruupp - 1974 - Seven Secrets (Japanese Remaster)\03 - White Eyes.wav

Peak level 100.0 %
Track quality 99.9 %
Test CRC 7D322DEE
Copy CRC 7D322DEE
Copy OK

Track 4
Filename C:\Users\Pepe\Documents\Azureus Downloads\Fruupp - 1974 - Seven Secrets (Japanese Remaster)\04 - Garden Lady.wav

Peak level 100.0 %
Track quality 99.9 %
Test CRC C33EC85B
Copy CRC C33EC85B
Copy OK

Track 5
Filename C:\Users\Pepe\Documents\Azureus Downloads\Fruupp - 1974 - Seven Secrets (Japanese Remaster)\05 - Three Spires.wav

Peak level 100.0 %
Track quality 100.0 %
Test CRC 62C788E4
Copy CRC 62C788E4
Copy OK

Track 6
Filename C:\Users\Pepe\Documents\Azureus Downloads\Fruupp - 1974 - Seven Secrets (Japanese Remaster)\06 - Elizabeth.wav

Peak level 100.0 %
Track quality 100.0 %
Test CRC EB4D86C8
Copy CRC EB4D86C8
Copy OK

Track 7
Filename C:\Users\Pepe\Documents\Azureus Downloads\Fruupp - 1974 - Seven Secrets (Japanese Remaster)\07 - The Seventh Secret.wav

Peak level 100.0 %
Track quality 100.0 %
Test CRC 76358155
Copy CRC 76358155
Copy OK

No errors occured


End of status report


[CUETools log; Date: 03.11.2017 2:16:11; Version: 2.1.5]
[AccurateRip ID: 000e34f7-0053cfb4-5f0acc07] found.
Track [ CRC | V2 ] Status
01 [d55f8645|f14bcc2b] (3+2/5) Accurately ripped
02 [85415e39|3a82ea0c] (3+2/5) Accurately ripped
03 [e52ebcdd|ed50f75e] (3+2/5) Accurately ripped
04 [2b1e581e|e18965c2] (3+2/5) Accurately ripped
05 [f144e9ee|1cc90bf3] (3+2/5) Accurately ripped
06 [aee69f02|77d0d793] (3+2/5) Accurately ripped
07 [fe1ed0f1|58835ea8] (2+2/4) Accurately ripped

Track Peak [ CRC32 ] [W/O NULL] [ LOG ]
– 100,0 [C67B2F44] [35C3327F]
01 100,0 [96FDE322] [152A7B95] CRC32
02 100,0 [DFA878B6] [12EA31D0] CRC32
03 100,0 [7D322DEE] [F3660B59] CRC32
04 100,0 [C33EC85B] [7BD1C859] CRC32
05 100,0 [62C788E4] [90271BB4] CRC32
06 100,0 [EB4D86C8] [67FC8E47] CRC32
07 100,0 [76358155] [7AA87F47] CRC32


Fruupp: Discography (1973 - 1976)

Tracklist CD5 - Modern Masquerades 1975:
2006, Strange Days POCE-1012

1. Misty morning way (6:57)
2. Masquerading with dawn (7:16)
3. Gormenghast (10:47)
4. Mistery might (8:23)
5. Why (4:12)
6. Janet planet (2:58)
7. Sheba's song (8:31)

Converted to Image (CUETools 2.1.4)

EAC extraction logfile from 19. September 2008, 18:12 for CD
Fruupp / Modern Masquerades (Japanese Remaster)

Used drive : HL-DT-STDVD-RW GSA-H11N Adapter: 1 ID: 0
Read mode : Secure with NO C2, accurate stream, disable cache
Read offset correction : 667
Overread into Lead-In and Lead-Out : No

Used output format : C:\Users\Pepe\Downloads\Flac\flac-1.1.4-win\bin\flac.exe (User Defined Encoder)
320 kBit/s
Additional command line options : -8 -V -T "artist=%a" -T "title=%t" -T "album=%g" -T "date=%y" -T "tracknumber=%n" -T "genre=%m" %s

Other options :
Fill up missing offset samples with silence : Yes
Delete leading and trailing silent blocks : No
Native Win32 interface for Win NT & 2000


Track 1
Filename C:\Users\Pepe\Documents\Azureus Downloads\Fruupp - 1976 - Modern Masquerades ( Japanese Remaster)\01 - Misty Morning Way.wav

Pre-gap length 0:00:02.00

Peak level 96.6 %
Track quality 99.9 %
Test CRC 905765E8
Copy CRC 905765E8
Copy OK

Track 2
Filename C:\Users\Pepe\Documents\Azureus Downloads\Fruupp - 1976 - Modern Masquerades ( Japanese Remaster)\02 - Masquerading With Dawn.wav

Peak level 96.6 %
Track quality 100.0 %
Test CRC 910AF34C
Copy CRC 910AF34C
Copy OK

Track 3
Filename C:\Users\Pepe\Documents\Azureus Downloads\Fruupp - 1976 - Modern Masquerades ( Japanese Remaster)\03 - Gormenghast.wav

Peak level 96.6 %
Track quality 100.0 %
Test CRC 2A91D410
Copy CRC 2A91D410
Copy OK

Track 4
Filename C:\Users\Pepe\Documents\Azureus Downloads\Fruupp - 1976 - Modern Masquerades ( Japanese Remaster)\04 - Mystery Might.wav

Peak level 96.6 %
Track quality 100.0 %
Test CRC FCC26C7D
Copy CRC FCC26C7D
Copy OK

Track 5
Filename C:\Users\Pepe\Documents\Azureus Downloads\Fruupp - 1976 - Modern Masquerades ( Japanese Remaster)\05 - Why.wav

Peak level 94.6 %
Track quality 100.0 %
Test CRC D0D13E29
Copy CRC D0D13E29
Copy OK

Track 6
Filename C:\Users\Pepe\Documents\Azureus Downloads\Fruupp - 1976 - Modern Masquerades ( Japanese Remaster)\06 - Janet Planet.wav

Peak level 96.6 %
Track quality 100.0 %
Test CRC A3CB6622
Copy CRC A3CB6622
Copy OK

Track 7
Filename C:\Users\Pepe\Documents\Azureus Downloads\Fruupp - 1976 - Modern Masquerades ( Japanese Remaster)\07 - Sheba's Song.wav

Peak level 96.6 %
Track quality 99.9 %
Test CRC D9CC1343
Copy CRC D9CC1343
Copy OK

No errors occured


End of status report


[CUETools log; Date: 03.11.2017 2:11:33; Version: 2.1.5]
[AccurateRip ID: 000e32eb-005425fb-4e0b8007] found.
Track [ CRC | V2 ] Status
01 [b2656016|96a34d6d] (2+4/6) Accurately ripped
02 [83d1db34|ffb7274a] (3+4/7) Accurately ripped
03 [9b4f9a7e|e8088ebe] (3+4/7) Accurately ripped
04 [ba4f49dd|96a629ce] (3+4/7) Accurately ripped
05 [d3d86a7b|6a7fe1c6] (3+4/7) Accurately ripped
06 [1bd67704|a734f158] (3+4/7) Accurately ripped
07 [ea76eb86|28199a5b] (2+4/6) Accurately ripped

Track Peak [ CRC32 ] [W/O NULL] [ LOG ]
– 96,6 [F509CC20] [F0360B5D]
01 96,6 [905765E8] [5E6E2085] CRC32
02 96,6 [910AF34C] [A17B8D6D] CRC32
03 96,6 [2A91D410] [502FB0B9] CRC32
04 96,6 [FCC26C7D] [4DCBCCC8] CRC32
05 94,6 [D0D13E29] [551C8782] CRC32
06 96,6 [A3CB6622] [A955F200] CRC32
07 96,6 [D9CC1343] [03EACB67] CRC32



All thanks go to the original releasers

Fruupp or Fruupp in my Blog

Download Fruupp: Discography (1973 - 1976):