Subcategories

Fruupp - Future Legends `73 & Seven Secrets `74 (1996)

Posted By: v3122
Fruupp - Future Legends `73 & Seven Secrets `74 (1996)

Fruupp - Future Legends `73 & Seven Secrets `74 (1996)
EAC | Flac(Image) + Cue + Log & MP3 CBR 320Kbps
See For Miles, C5HCD 645 | ~ 382 or 173 Mb | Scans(jpg) -> 6.99 Mb
Progressive Rock

This compilation combines Fruup's first and second albums on a single CD. The band offered pretty good value in LP terms, so in order to avoid the need for a second CD, one track from each had to be omitted. The sleeve notes reassuring state that We are sure this will not detract from your listening enjoyment".

The first album Future legends is generally regarded as the band's best. Each of the tracks is a carefully crafted mini-suite. While the band are to be commended for their sense of adventure, their song writing skills sometimes fail to match their ambitions. The rather uninspired arrangements and production also leave some of the tracks sounding weak. That said, Future legends remains an album which captures many of the essences of prog, and is certainly worthy of a listen.

Seven secrets is a bit of step backwards, the album lacking the initial impact of the band's debut, while feeling generally weak. There's still plenty of diversity and switching of tempo, but there's an underlying dullness and lack of inspiration.

There are conflicting opinions as to whether the missing tracks are essential but given that this single CD offers a cost effective way of obtaining a couple of rare albums, beggars cannot be choosers.

by Easy Livin, progarchives
Fruupp - Future Legends `73 & Seven Secrets `74 (1996)):

Fruupp - Future Legends `73 & Seven Secrets `74 (1996)

Tracklist:

01. Future Legends 1:27
02. Decision 6:21
03. As Day Breaks With Dawn 4:58
04. Lord of the Incubus 6:20
05. Olde Tyme Future 5:33
06. Song For A Thought 7:25
07. Future Legends 0:47
08. Wise As Wisdom 7:07
09. White Eyes 7:16
10. Garden Lady 9:00
11. Three Spires 5:00
12. Elizabeth 7:45
13. The Seventh Secret 1:04

Exact Audio Copy V1.0 beta 3 from 29. August 2011

EAC extraction logfile from 17. October 2017, 22:25

Fruupp / Future Legends and Seven Secrets

Used drive : PLEXTOR DVDR PX-740A Adapter: 0 ID: 0

Read mode : Secure
Utilize accurate stream : Yes
Defeat audio cache : Yes
Make use of C2 pointers : No

Read offset correction : 618
Overread into Lead-In and Lead-Out : No
Fill up missing offset samples with silence : Yes
Delete leading and trailing silent blocks : No
Null samples used in CRC calculations : Yes
Used interface : Native Win32 interface for Win NT & 2000

Used output format : Internal WAV Routines
Sample format : 44.100 Hz; 16 Bit; Stereo


TOC of the extracted CD

Track | Start | Length | Start sector | End sector
––––––––––––––––––––––––––––-
1 | 0:00.32 | 1:30.68 | 32 | 6849
2 | 1:31.25 | 6:25.60 | 6850 | 35784
3 | 7:57.10 | 6:15.50 | 35785 | 63959
4 | 14:12.60 | 6:25.65 | 63960 | 92899
5 | 20:38.50 | 5:36.60 | 92900 | 118159
6 | 26:15.35 | 7:30.02 | 118160 | 151911
7 | 33:45.37 | 0:51.43 | 151912 | 155779
8 | 34:37.05 | 7:06.37 | 155780 | 187766
9 | 41:43.42 | 7:15.45 | 187767 | 220436
10 | 48:59.12 | 9:09.40 | 220437 | 261651
11 | 58:08.52 | 5:00.65 | 261652 | 284216
12 | 63:09.42 | 7:46.48 | 284217 | 319214
13 | 70:56.15 | 1:05.10 | 319215 | 324099


Range status and errors

Selected range

Filename C:\MUSIC\CD Rips_J\Fruupp FLSS\Fruupp - Future Legends and Seven Secrets.wav

Peak level 96.9 %
Extraction speed 9.9 X
Range quality 99.9 %
Test CRC AD39F4B5
Copy CRC AD39F4B5
Copy OK

No errors occurred


AccurateRip summary

Track 1 accurately ripped (confidence 5) [3A39FF25] (AR v2)
Track 2 accurately ripped (confidence 5) [F40902CD] (AR v2)
Track 3 accurately ripped (confidence 5) [C4120E41] (AR v2)
Track 4 accurately ripped (confidence 5) [91800FE6] (AR v2)
Track 5 accurately ripped (confidence 5) [7B8CAE0F] (AR v2)
Track 6 accurately ripped (confidence 5) [2FA01FC2] (AR v2)
Track 7 accurately ripped (confidence 5) [85B0D6D4] (AR v2)
Track 8 accurately ripped (confidence 5) [CC65F153] (AR v2)
Track 9 accurately ripped (confidence 5) [1A89F0B0] (AR v2)
Track 10 accurately ripped (confidence 5) [ED627CB3] (AR v2)
Track 11 accurately ripped (confidence 5) [1B9867EA] (AR v2)
Track 12 accurately ripped (confidence 5) [E43D5143] (AR v2)
Track 13 accurately ripped (confidence 5) [7EA8CF50] (AR v2)

All tracks accurately ripped

End of status report

==== Log checksum C014860C68960BD464CC3FE19B48F7D449F9918B0F1052763F539118AA4A3337 ====


[CUETools log; Date: 13.11.2017 12:58:32; Version: 2.1.5]
Pregap length 00:00:32.
[AccurateRip ID: 0021eaaf-015ad60f-be10e10d] found.
Track [ CRC | V2 ] Status
01 [d320f29c|3a39ff25] (2+5/7) Accurately ripped
02 [f8927d7c|f40902cd] (2+5/7) Accurately ripped
03 [2db25c22|c4120e41] (2+5/7) Accurately ripped
04 [b0a3511e|91800fe6] (2+5/7) Accurately ripped
05 [c002cbf5|7b8cae0f] (2+5/7) Accurately ripped
06 [698e23e7|2fa01fc2] (2+5/7) Accurately ripped
07 [e383f63c|85b0d6d4] (2+5/7) Accurately ripped
08 [74751bb0|cc65f153] (2+5/7) Accurately ripped
09 [b3d26a3d|1a89f0b0] (2+5/7) Accurately ripped
10 [3de068f2|ed627cb3] (2+5/7) Accurately ripped
11 [5cba1a33|1b9867ea] (2+5/7) Accurately ripped
12 [c662679f|e43d5143] (2+5/7) Accurately ripped
13 [279f1a23|7ea8cf50] (2+5/7) Accurately ripped

Track Peak [ CRC32 ] [W/O NULL] [ LOG ]
– 96,9 [AD39F4B5] [7D0C072D] CRC32
01 28,6 [3B546667] [18FC1151]
02 61,4 [5CA26662] [2F6BD517]
03 96,9 [3CDD2A00] [46AC69AB]
04 71,3 [B31BC2E9] [D6A52575]
05 68,5 [639B52A8] [98DAA685]
06 77,8 [0CCF0555] [BCD82BDC]
07 35,6 [07BC4280] [33A6EB1D]
08 77,9 [94CED43A] [D70A3341]
09 67,2 [7B021C7D] [2EFF51CA]
10 68,9 [8954B77B] [019AE91D]
11 80,5 [B24F133A] [3724F5A4]
12 89,2 [82938749] [5997C617]
13 57,0 [CCD02554] [E5744A40]


Fruupp - Future Legends `73 & Seven Secrets `74 (1996)

All thanks go to the original releaser

Fruupp or Fruupp in my Blog

Download Fruupp - Future Legends `73 & Seven Secrets `74 (1996):